  0
SECTION
  2
HEADER
  9
$ACADVER
  1
AC1015
  9
$ACADMAINTVER
 70
    18
  9
$DWGCODEPAGE
  3
ANSI_1252
  9
$INSBASE
 10
0.0
 20
0.0
 30
0.0
  9
$EXTMIN
 10
0.4694220429089456
 20
49.97414149387066
 30
0.0
  9
$EXTMAX
 10
692.6401998826265
 20
510.8054630300842
 30
0.0
  9
$LIMMIN
 10
0.0
 20
0.0
  9
$LIMMAX
 10
420.0
 20
297.0
  9
$ORTHOMODE
 70
     1
  9
$REGENMODE
 70
     1
  9
$FILLMODE
 70
     1
  9
$QTEXTMODE
 70
     0
  9
$MIRRTEXT
 70
     1
  9
$LTSCALE
 40
1.0
  9
$ATTMODE
 70
     1
  9
$TEXTSIZE
 40
2.5
  9
$TRACEWID
 40
1.0
  9
$TEXTSTYLE
  7
STANDARD
  9
$CLAYER
  8
0
  9
$CELTYPE
  6
ByLayer
  9
$CECOLOR
 62
   256
  9
$CELTSCALE
 40
1.0
  9
$DISPSILH
 70
     0
  9
$DIMSCALE
 40
1.0
  9
$DIMASZ
 40
2.5
  9
$DIMEXO
 40
1.0
  9
$DIMDLI
 40
10.0
  9
$DIMRND
 40
0.0
  9
$DIMDLE
 40
0.0
  9
$DIMEXE
 40
1.0
  9
$DIMTP
 40
0.1
  9
$DIMTM
 40
0.1
  9
$DIMTXT
 40
3.5
  9
$DIMCEN
 40
0.0
  9
$DIMTSZ
 40
0.0
  9
$DIMTOL
 70
     0
  9
$DIMLIM
 70
     0
  9
$DIMTIH
 70
     0
  9
$DIMTOH
 70
     0
  9
$DIMSE1
 70
     0
  9
$DIMSE2
 70
     0
  9
$DIMTAD
 70
     1
  9
$DIMZIN
 70
     8
  9
$DIMBLK
  1

  9
$DIMASO
 70
     1
  9
$DIMSHO
 70
     1
  9
$DIMPOST
  1

  9
$DIMAPOST
  1
"
  9
$DIMALT
 70
     0
  9
$DIMALTD
 70
     2
  9
$DIMALTF
 40
0.0393701
  9
$DIMLFAC
 40
1.0
  9
$DIMTOFL
 70
     1
  9
$DIMTVP
 40
0.0
  9
$DIMTIX
 70
     0
  9
$DIMSOXD
 70
     0
  9
$DIMSAH
 70
     0
  9
$DIMBLK1
  1

  9
$DIMBLK2
  1

  9
$DIMSTYLE
  2
AM_DIN
  9
$DIMCLRD
 70
   256
  9
$DIMCLRE
 70
   256
  9
$DIMCLRT
 70
     2
  9
$DIMTFAC
 40
0.71
  9
$DIMGAP
 40
1.5
  9
$DIMJUST
 70
     0
  9
$DIMSD1
 70
     0
  9
$DIMSD2
 70
     0
  9
$DIMTOLJ
 70
     0
  9
$DIMTZIN
 70
     8
  9
$DIMALTZ
 70
     0
  9
$DIMALTTZ
 70
     0
  9
$DIMUPT
 70
     0
  9
$DIMDEC
 70
     1
  9
$DIMTDEC
 70
     3
  9
$DIMALTU
 70
     2
  9
$DIMALTTD
 70
     4
  9
$DIMTXSTY
  7
STANDARD
  9
$DIMAUNIT
 70
     0
  9
$DIMADEC
 70
     0
  9
$DIMALTRND
 40
0.0
  9
$DIMAZIN
 70
     2
  9
$DIMDSEP
 70
    46
  9
$DIMATFIT
 70
     3
  9
$DIMFRAC
 70
     0
  9
$DIMLDRBLK
  1

  9
$DIMLUNIT
 70
     2
  9
$DIMLWD
 70
    -1
  9
$DIMLWE
 70
    -1
  9
$DIMTMOVE
 70
     0
  9
$LUNITS
 70
     2
  9
$LUPREC
 70
     2
  9
$SKETCHINC
 40
1.0
  9
$FILLETRAD
 40
0.1
  9
$AUNITS
 70
     0
  9
$AUPREC
 70
     0
  9
$MENU
  1
.
  9
$ELEVATION
 40
0.0
  9
$PELEVATION
 40
0.0
  9
$THICKNESS
 40
0.0
  9
$LIMCHECK
 70
     0
  9
$CHAMFERA
 40
2.5
  9
$CHAMFERB
 40
2.5
  9
$CHAMFERC
 40
20.0
  9
$CHAMFERD
 40
0.0
  9
$SKPOLY
 70
     0
  9
$TDCREATE
 40
2453798.966575521
  9
$TDUCREATE
 40
2453798.924908854
  9
$TDUPDATE
 40
2454844.731425776
  9
$TDUUPDATE
 40
2454844.689759109
  9
$TDINDWG
 40
1.0690194444
  9
$TDUSRTIMER
 40
1.0690174653
  9
$USRTIMER
 70
     1
  9
$ANGBASE
 50
0.0
  9
$ANGDIR
 70
     0
  9
$PDMODE
 70
     0
  9
$PDSIZE
 40
0.0
  9
$PLINEWID
 40
0.0
  9
$SPLFRAME
 70
     0
  9
$SPLINETYPE
 70
     6
  9
$SPLINESEGS
 70
     8
  9
$HANDSEED
  5
7243
  9
$SURFTAB1
 70
     6
  9
$SURFTAB2
 70
     6
  9
$SURFTYPE
 70
     6
  9
$SURFU
 70
     6
  9
$SURFV
 70
     6
  9
$UCSBASE
  2

  9
$UCSNAME
  2

  9
$UCSORG
 10
0.0
 20
0.0
 30
0.0
  9
$UCSXDIR
 10
1.0
 20
0.0
 30
0.0
  9
$UCSYDIR
 10
0.0
 20
1.0
 30
0.0
  9
$UCSORTHOREF
  2

  9
$UCSORTHOVIEW
 70
     0
  9
$UCSORGTOP
 10
0.0
 20
0.0
 30
0.0
  9
$UCSORGBOTTOM
 10
0.0
 20
0.0
 30
0.0
  9
$UCSORGLEFT
 10
0.0
 20
0.0
 30
0.0
  9
$UCSORGRIGHT
 10
0.0
 20
0.0
 30
0.0
  9
$UCSORGFRONT
 10
0.0
 20
0.0
 30
0.0
  9
$UCSORGBACK
 10
0.0
 20
0.0
 30
0.0
  9
$PUCSBASE
  2

  9
$PUCSNAME
  2

  9
$PUCSORG
 10
0.0
 20
0.0
 30
0.0
  9
$PUCSXDIR
 10
1.0
 20
0.0
 30
0.0
  9
$PUCSYDIR
 10
0.0
 20
1.0
 30
0.0
  9
$PUCSORTHOREF
  2

  9
$PUCSORTHOVIEW
 70
     0
  9
$PUCSORGTOP
 10
0.0
 20
0.0
 30
0.0
  9
$PUCSORGBOTTOM
 10
0.0
 20
0.0
 30
0.0
  9
$PUCSORGLEFT
 10
0.0
 20
0.0
 30
0.0
  9
$PUCSORGRIGHT
 10
0.0
 20
0.0
 30
0.0
  9
$PUCSORGFRONT
 10
0.0
 20
0.0
 30
0.0
  9
$PUCSORGBACK
 10
0.0
 20
0.0
 30
0.0
  9
$USERI1
 70
     0
  9
$USERI2
 70
     0
  9
$USERI3
 70
     0
  9
$USERI4
 70
     0
  9
$USERI5
 70
     0
  9
$USERR1
 40
0.0
  9
$USERR2
 40
0.0
  9
$USERR3
 40
0.0
  9
$USERR4
 40
0.0
  9
$USERR5
 40
0.0
  9
$WORLDVIEW
 70
     1
  9
$SHADEDGE
 70
     3
  9
$SHADEDIF
 70
    70
  9
$TILEMODE
 70
     0
  9
$MAXACTVP
 70
    64
  9
$PINSBASE
 10
0.0
 20
0.0
 30
0.0
  9
$PLIMCHECK
 70
     0
  9
$PEXTMIN
 10
-0.0064041928748111
 20
-0.004528679247187
 30
-0.0000000000112498
  9
$PEXTMAX
 10
420.0064100605656
 20
297.0045328285427
 30
0.0000000000002956
  9
$PLIMMIN
 10
0.0
 20
0.0
  9
$PLIMMAX
 10
420.0
 20
297.0
  9
$UNITMODE
 70
     0
  9
$VISRETAIN
 70
     1
  9
$PLINEGEN
 70
     0
  9
$PSLTSCALE
 70
     1
  9
$TREEDEPTH
 70
  3020
  9
$CMLSTYLE
  2
Standard
  9
$CMLJUST
 70
     0
  9
$CMLSCALE
 40
20.0
  9
$PROXYGRAPHICS
 70
     1
  9
$MEASUREMENT
 70
     1
  9
$CELWEIGHT
370
    -1
  9
$ENDCAPS
280
     0
  9
$JOINSTYLE
280
     0
  9
$LWDISPLAY
290
     0
  9
$INSUNITS
 70
     4
  9
$HYPERLINKBASE
  1

  9
$STYLESHEET
  1
PoPa-0.ctb
  9
$XEDIT
290
     1
  9
$CEPSNTYPE
380
     0
  9
$PSTYLEMODE
290
     1
  9
$FINGERPRINTGUID
  2
{493BFAB3-BE4B-404B-9261-AB3BF2088C47}
  9
$VERSIONGUID
  2
{C83F72A7-ADD5-4DBA-AF27-D2CCD1347DDE}
  9
$EXTNAMES
290
     1
  9
$PSVPSCALE
 40
0.0
  9
$OLESTARTUP
290
     0
  0
ENDSEC
  0
SECTION
  2
CLASSES
  0
CLASS
  1
ACDBDICTIONARYWDFLT
  2
AcDbDictionaryWithDefault
  3
ObjectDBX Classes
 90
        0
280
     0
281
     0
  0
CLASS
  1
ACDBPLACEHOLDER
  2
AcDbPlaceHolder
  3
ObjectDBX Classes
 90
        0
280
     0
281
     0
  0
CLASS
  1
LAYOUT
  2
AcDbLayout
  3
ObjectDBX Classes
 90
        0
280
     0
281
     0
  0
CLASS
  1
ACME_DOCUMENT
  2
AcMeDbDoc
  3
AcMeServices
 90
        0
280
     0
281
     0
  0
CLASS
  1
ACMESCOPE
  2
AcMeScope
  3
AcMeServices
 90
        0
280
     0
281
     0
  0
CLASS
  1
ACMECOMMANDHISTORY
  2
AcMeCommandHistory
  3
AcMeServices
 90
        0
280
     0
281
     0
  0
CLASS
  1
ACIMSYSVARMAN
  2
AcImSysVarManager
  3
AcMeServices
 90
        0
280
     0
281
     0
  0
CLASS
  1
ACIMREALSYSVAR
  2
AcImRealSysVar
  3
AcMeServices
 90
        0
280
     0
281
     0
  0
CLASS
  1
ACIMINTSYSVAR
  2
AcImIntSysVar
  3
AcMeServices
 90
        0
280
     0
281
     0
  0
CLASS
  1
ACMEDRAWINGMAN
  2
AcMeDrawingMan
  3
AcMeServices
 90
        0
280
     0
281
     0
  0
CLASS
  1
ACMEVIEW
  2
AcMeView
  3
AcMeServices
 90
        0
280
     0
281
     0
  0
CLASS
  1
ACDBENTITYCACHE
  2
AcMeEntityCache
  3
AcMeServices
 90
        0
280
     0
281
     0
  0
CLASS
  1
GSMANAGER
  2
AcMeGSManager
  3
AcMeServices
 90
        0
280
     0
281
     0
  0
CLASS
  1
AMDTINTERNALREACTOR
  2
AmdtInternalReactor
  3
AcMeServices
 90
        0
280
     0
281
     0
  0
CLASS
  1
ACMESTATEMGR
  2
AcMeStateMgr
  3
AcMeServices
 90
        0
280
     0
281
     0
  0
CLASS
  1
ACGREFMASTER
  2
AcGrefMaster
  3
AcAttribServices
 90
        0
280
     0
281
     0
  0
CLASS
  1
ACME_DATABASE
  2
AcMeDbDatabase
  3
AcMeServices
 90
        0
280
     0
281
     0
  0
CLASS
  1
ACRFINSADJUSTERMGR
  2
AcRfInsAdjusterMgr
  3
AcMeServices
 90
        0
280
     0
281
     0
  0
CLASS
  1
ACGREFACADMASTER
  2
AcGrefacadMaster
  3
AcGrefServices
 90
        0
280
     0
281
     0
  0
CLASS
  1
AMIMASTER
  2
AmiMaster
  3
AmiServices
 90
        0
280
     0
281
     0
  0
CLASS
  1
AMGSETTINGSOBJ
  2
AmgSettingsObj
  3
"AcadM|Product Description: AutoCAD Mechanical 2000|Company: Autodesk"
 90
        0
280
     0
281
     0
  0
CLASS
  1
ACMDATADICTIONARY
  2
AcmDataDictionary
  3
"AcmSymBB|Product Description: AutoCAD Mechanical 2004 DX|Company: Autodesk"
 90
        0
280
     0
281
     0
  0
CLASS
  1
ACMDATAENTRYBLOCK
  2
AcmDataEntryBlock
  3
"AcmSymBB|Product Description: AutoCAD Mechanical 2004 DX|Company: Autodesk"
 90
    32768
280
     0
281
     0
  0
CLASS
  1
ACIMSTRSYSVAR
  2
AcImStrSysVar
  3
AcMeServices
 90
        0
280
     0
281
     0
  0
CLASS
  1
ACMSTANDARDDIN
  2
AcmStandardDIN
  3
"Amdt_StdImp|Product Description: AutoCAD Mechanical 2004 DX|Company: Autodesk"
 90
        0
280
     0
281
     0
  0
CLASS
  1
AMGOBJPROPCFG
  2
AmgObjPropCfg
  3
"AmgLay|Product Description: AutoCAD Mechanical 2000|Company: Autodesk"
 90
        1
280
     0
281
     0
  0
CLASS
  1
AMDTEDGESTANDARDDIN
  2
AmdtEdgeStdDIN
  3
"Amdt_StdImp|Product Description: AutoCAD Mechanical 2004 DX|Company: Autodesk"
 90
    32768
280
     0
281
     0
  0
CLASS
  1
ACMSURFSTANDARDDIN
  2
AcmSurfTextStdDIN
  3
"Amdt_StdImp|Product Description: AutoCAD Mechanical 2004 DX|Company: Autodesk"
 90
        0
280
     0
281
     0
  0
CLASS
  1
ACMFCFSTANDARDDIN
  2
AcmFCFStdDIN
  3
"Amdt_StdImp|Product Description: AutoCAD Mechanical 2004 DX|Company: Autodesk"
 90
        0
280
     0
281
     0
  0
CLASS
  1
ACMWELDSTANDARDDIN
  2
AcmWeldingStdDIN
  3
"Amdt_StdImp|Product Description: AutoCAD Mechanical 2004 DX|Company: Autodesk"
 90
        0
280
     0
281
     0
  0
CLASS
  1
ACMIDSTANDARDDIN
  2
AcmIdStdDIN
  3
"Amdt_StdImp|Product Description: AutoCAD Mechanical 2004 DX|Company: Autodesk"
 90
        0
280
     0
281
     0
  0
CLASS
  1
ACMDATUMSTANDARDDIN
  2
AcmDatumStdDIN
  3
"Amdt_StdImp|Product Description: AutoCAD Mechanical 2004 DX|Company: Autodesk"
 90
        0
280
     0
281
     0
  0
CLASS
  1
ACMBOMSTANDARDDIN
  2
AcmBOMStdDIN
  3
"Amdt_StdImp|Product Description: AutoCAD Mechanical 2004 DX|Company: Autodesk"
 90
        0
280
     0
281
     0
  0
CLASS
  1
ACMDETAILSTANDARDDIN
  2
AmdtDetailSymStdDIN
  3
"Amdt_StdImp|Product Description: AutoCAD Mechanical 2004 DX|Company: Autodesk"
 90
        0
280
     0
281
     0
  0
CLASS
  1
ACMSECTIONSTANDARDDIN
  2
AmdtSectionSymStdDIN
  3
"Amdt_StdImp|Product Description: AutoCAD Mechanical 2004 DX|Company: Autodesk"
 90
        0
280
     0
281
     0
  0
CLASS
  1
ACMCENTERLINESTANDARDDIN
  2
AmdtCenterLineStdDIN
  3
"Amdt_StdImp|Product Description: AutoCAD Mechanical 2004 DX|Company: Autodesk"
 90
        0
280
     0
281
     0
  0
CLASS
  1
ACMNOTESTANDARDDIN
  2
AmdtNoteStdDIN
  3
"Amdt_StdImp|Product Description: AutoCAD Mechanical 2004 DX|Company: Autodesk"
 90
        0
280
     0
281
     0
  0
CLASS
  1
ACAMGLAYSTD
  2
AcAmgLayStd
  3
"AcAmgLayStd|Product Description: AutoCAD Mechanical 2000|Company: Autodesk"
 90
        0
280
     0
281
     0
  0
CLASS
  1
ACAMGDIMSTD
  2
AcAmgDimStd
  3
"AcAmgDimStd|Product Description: AutoCAD Mechanical 2000|Company: Autodesk"
 90
        0
280
     0
281
     0
  0
CLASS
  1
ACAMGHOLECHARTSTDDIN
  2
AcAmgHoleChartStdDIN
  3
ACMSYMBB_MODULE_NAME
 90
        0
280
     0
281
     0
  0
CLASS
  1
ACAMGTITLESTD
  2
AcAmgTitleStd
  3
"TITLEAPP"
 90
        0
280
     0
281
     0
  0
CLASS
  1
ACAMGFILTERDAT
  2
AcAmgFilterDat
  3
"AcadM|Product Description: AutoCAD Mechanical 2000|Company: Autodesk"
 90
    32768
280
     0
281
     0
  0
CLASS
  1
LAYER_INDEX
  2
AcDbLayerIndex
  3
ObjectDBX Classes
 90
    32768
280
     0
281
     0
  0
CLASS
  1
IDBUFFER
  2
AcDbIdBuffer
  3
ObjectDBX Classes
 90
    32768
280
     0
281
     0
  0
CLASS
  1
DICTIONARYVAR
  2
AcDbDictionaryVar
  3
ObjectDBX Classes
 90
        0
280
     0
281
     0
  0
CLASS
  1
DIMASSOC
  2
AcDbDimAssoc
  3
"AcDbDimAssoc|Product Desc:     AcDim ARX App For Dimension|Company:          Autodesk, Inc.|WEB Address:      www.autodesk.com"
 90
        0
280
     0
281
     0
  0
CLASS
  1
ACMSTANDARDANSI
  2
AcmStandardANSI
  3
"Amdt_StdImp|Product Description: AutoCAD Mechanical 2004 DX|Company: Autodesk"
 90
    32768
280
     0
281
     0
  0
CLASS
  1
ACMSURFSTANDARDANSI
  2
AcmSurfTextStdANSI
  3
"Amdt_StdImp|Product Description: AutoCAD Mechanical 2004 DX|Company: Autodesk"
 90
    32768
280
     0
281
     0
  0
CLASS
  1
ACMFCFSTANDARDANSI
  2
AcmFCFStdANSI
  3
"Amdt_StdImp|Product Description: AutoCAD Mechanical 2004 DX|Company: Autodesk"
 90
    32768
280
     0
281
     0
  0
CLASS
  1
ACMWELDSTANDARDANSI
  2
AcmWeldingStdANSI
  3
"Amdt_StdImp|Product Description: AutoCAD Mechanical 2004 DX|Company: Autodesk"
 90
    32768
280
     0
281
     0
  0
CLASS
  1
ACMIDSTANDARDANSI
  2
AcmIdStdANSI
  3
"Amdt_StdImp|Product Description: AutoCAD Mechanical 2004 DX|Company: Autodesk"
 90
    32768
280
     0
281
     0
  0
CLASS
  1
ACMDATUMSTANDARDANSI
  2
AcmDatumStdANSI
  3
"Amdt_StdImp|Product Description: AutoCAD Mechanical 2004 DX|Company: Autodesk"
 90
    32768
280
     0
281
     0
  0
CLASS
  1
ACMBOMSTANDARDANSI
  2
AcmBOMStdANSI
  3
"Amdt_StdImp|Product Description: AutoCAD Mechanical 2004 DX|Company: Autodesk"
 90
    32768
280
     0
281
     0
  0
CLASS
  1
ACMDETAILSTANDARDANSI
  2
AmdtDetailSymStdANSI
  3
"Amdt_StdImp|Product Description: AutoCAD Mechanical 2004 DX|Company: Autodesk"
 90
    32768
280
     0
281
     0
  0
CLASS
  1
ACMSECTIONSTANDARDANSI
  2
AmdtSectionSymStdANSI
  3
"Amdt_StdImp|Product Description: AutoCAD Mechanical 2004 DX|Company: Autodesk"
 90
    32768
280
     0
281
     0
  0
CLASS
  1
ACMCENTERLINESTANDARDANSI
  2
AmdtCenterLineStdANSI
  3
"Amdt_StdImp|Product Description: AutoCAD Mechanical 2004 DX|Company: Autodesk"
 90
    32768
280
     0
281
     0
  0
CLASS
  1
ACMNOTESTANDARDANSI
  2
AmdtNoteStdANSI
  3
"Amdt_StdImp|Product Description: AutoCAD Mechanical 2004 DX|Company: Autodesk"
 90
    32768
280
     0
281
     0
  0
CLASS
  1
ACAMGHOLECHARTSTDANSI
  2
AcAmgHoleChartStdANSI
  3
ACMSYMBB_MODULE_NAME
 90
    32768
280
     0
281
     0
  0
CLASS
  1
ACDBLINERES
  2
AcDbLineRes
  3
AcGrefServices
 90
    32768
280
     0
281
     0
  0
CLASS
  1
AMDTNOTE
  2
AmdtNote
  3
"AcmSymBB|Product Description: AutoCAD Mechanical 2004 DX|Company: Autodesk"
 90
    33791
280
     0
281
     1
  0
CLASS
  1
AMDTFORMULAUPDATEDISPATCHER
  2
AmdtFormulaUpdateDispatcher
  3
AcMeServices
 90
    32768
280
     0
281
     0
  0
CLASS
  1
AMDTDETAILSYM
  2
AmdtDetailSym
  3
"AcmSymBB|Product Description: AutoCAD Mechanical 2004 DX|Company: Autodesk"
 90
    33791
280
     0
281
     1
  0
CLASS
  1
AMDTDETAILSYMLABEL
  2
AmdtDetailSymLabel
  3
"AcmSymBB|Product Description: AutoCAD Mechanical 2004 DX|Company: Autodesk"
 90
    33791
280
     0
281
     1
  0
CLASS
  1
ACDBDIMENSIONRES
  2
AcDbDimensionRes
  3
"AcDbDimensionRes|Product Description: AutoCAD Mechanical 2000|Company: Autodesk"
 90
    32768
280
     0
281
     0
  0
CLASS
  1
TABLESTYLE
  2
AcDbTableStyle
  3
ObjectDBX Classes
 90
     2047
280
     0
281
     0
  0
CLASS
  1
AM_DRAWING_MGR
  2
AcDmDwgMgr
  3
AcMechDwgViewMgmt
 90
        0
280
     0
281
     0
  0
CLASS
  1
AM_DWG_DOCUMENT
  2
AcDmDwgDocument
  3
AcMechDwgViewMgmt
 90
        0
280
     0
281
     0
  0
CLASS
  1
AM_DWG_SHEET
  2
AcDmSheet
  3
AcMechDwgViewMgmt
 90
        0
280
     0
281
     0
  0
CLASS
  1
AM_VIEWDIMPARMAP
  2
AcDmViewDimParMap
  3
AcMechDwgViewMgmt
 90
        0
280
     0
281
     0
  0
CLASS
  1
AM_DWGMGR_NAME
  2
AcDmDwgMgrName
  3
AcMechDwgViewMgmt
 90
        0
280
     0
281
     0
  0
CLASS
  1
AMDTMENUSTATEMGR
  2
AmdtMenuStateMgr
  3
McadcomServices
 90
        0
280
     0
281
     0
  0
CLASS
  1
AMDTMCOMMENUSTATE
  2
AmdtMcomMenuState
  3
McadcomServices
 90
        0
280
     0
281
     0
  0
CLASS
  1
MAPIAMMOUDLE
  2
MApiAmModule
  3
MApiAmServices
 90
        0
280
     0
281
     0
  0
CLASS
  1
AMDTADMENUSTATE
  2
AmdtAdMenuState
  3
DesignerServices
 90
        0
280
     0
281
     0
  0
CLASS
  1
ADAPPL
  2
AcAdAppl
  3
DesignerServices
 90
        0
280
     0
281
     0
  0
CLASS
  1
DEPMGR
  2
AcAdDepMgr
  3
DesignerServices
 90
        0
280
     0
281
     0
  0
CLASS
  1
PARAMMGR
  2
AcAdParamMgr
  3
DesignerServices
 90
        0
280
     0
281
     0
  0
CLASS
  1
PARAMSCOPE
  2
AcAdParamScope
  3
DesignerServices
 90
        0
280
     0
281
     0
  0
CLASS
  1
NAMEDAPPL
  2
AcAdNamedAppl
  3
DesignerServices
 90
        0
280
     0
281
     0
  0
CLASS
  1
AMDTDMMENUSTATE
  2
AmdtDmMenuState
  3
AcMechDwgViewMgmt
 90
        0
280
     0
281
     0
  0
CLASS
  1
AMDTAMMENUSTATE
  2
AmdtAmMenuState
  3
DesignerAssemblies
 90
        0
280
     0
281
     0
  0
CLASS
  1
ACAMPROJECT
  2
AcAmProject
  3
DesignerAssemblies
 90
        0
280
     0
281
     0
  0
CLASS
  1
ACAMGRCOMPDEF
  2
AcAmGrCompDef
  3
DesignerAssemblies
 90
        0
280
     0
281
     0
  0
CLASS
  1
ACCMCONTEXT
  2
AcCmContext
  3
DesignerAssemblies
 90
        0
280
     0
281
     0
  0
CLASS
  1
ACAMCOMPDEF
  2
AcAmCompDef
  3
DesignerAssemblies
 90
        0
280
     0
281
     0
  0
CLASS
  1
ACAMCOMPDEFMGR
  2
AcAmCompDefMgr
  3
DesignerAssemblies
 90
        0
280
     0
281
     0
  0
CLASS
  1
AMCONTEXTMGR
  2
AcAmContextMgr
  3
DesignerAssemblies
 90
        0
280
     0
281
     0
  0
CLASS
  1
ACAMCONTEXTMODELER
  2
AcAmContextModeler
  3
DesignerAssemblies
 90
        0
280
     0
281
     0
  0
CLASS
  1
ACMTHREADLINESTANDARDDIN
  2
AmdtThreadLineStdDIN
  3
"Amdt_StdImp|Product Description: AutoCAD Mechanical 2004 DX|Company: Autodesk"
 90
        0
280
     0
281
     0
  0
CLASS
  1
ACMTHREADLINESTANDARDANSI
  2
AmdtThreadLineStdANSI
  3
"Amdt_StdImp|Product Description: AutoCAD Mechanical 2004 DX|Company: Autodesk"
 90
    32768
280
     0
281
     0
  0
CLASS
  1
CATALOGSTATE
  2
AcAmCatalogState
  3
DesignerAssemblies
 90
        0
280
     0
281
     0
  0
CLASS
  1
ACAMGRCOMPDEFSET
  2
AcAmGrCompDefSet
  3
DesignerAssemblies
 90
        0
280
     0
281
     0
  0
CLASS
  1
AMDTBROWSERDBTAB
  2
AmdtBrowserDbTab
  3
McadcomServices
 90
        0
280
     0
281
     0
  0
CLASS
  1
CBROWSERAPPOBJECT
  2
CBrowserAppObject
  3
McadcomServices
 90
        0
280
     0
281
     0
  0
CLASS
  1
DM_PLACEHOLDER
  2
AcDmSelsetPlaceholder
  3
AcMechDwgViewMgmt
 90
        0
280
     0
281
     0
  0
CLASS
  1
SORTENTSTABLE
  2
AcDbSortentsTable
  3
ObjectDBX Classes
 90
        0
280
     0
281
     0
  0
CLASS
  1
AMDTEDGESTANDARDDIN13715
  2
AmdtEdgeStdDIN13715
  3
"Amdt_StdImp|Product Description: AutoCAD Mechanical 2004 DX|Company: Autodesk"
 90
        0
280
     0
281
     0
  0
CLASS
  1
AMDTNOTETEMPLATEDB
  2
AmdtNoteTemplateDB
  3
AMDT_STDIMP_MODULE_NAME
 90
        0
280
     0
281
     0
  0
ENDSEC
  0
SECTION
  2
TABLES
  0
TABLE
  2
VPORT
  5
8
330
0
100
AcDbSymbolTable
 70
     1
  0
VPORT
  5
706F
330
8
100
AcDbSymbolTableRecord
100
AcDbViewportTableRecord
  2
*Active
 70
     0
 10
0.0
 20
0.0
 11
1.0
 21
1.0
 12
402.7218849173
 22
280.3833770970126
 13
0.0
 23
0.0
 14
2.5
 24
2.5
 15
10.0
 25
10.0
 16
0.0
 26
0.0
 36
1.0
 17
0.0
 27
0.0
 37
0.0
 40
463.8876085343271
 41
2.188709677419354
 42
50.0
 43
0.0
 44
0.0
 50
0.0
 51
0.0
 71
    16
 72
   100
 73
     1
 74
     3
 75
     0
 76
     0
 77
     0
 78
     0
281
     0
 65
     1
110
0.0
120
0.0
130
0.0
111
1.0
121
0.0
131
0.0
112
0.0
122
1.0
132
0.0
 79
     0
146
0.0
  0
ENDTAB
  0
TABLE
  2
LTYPE
  5
5
330
0
100
AcDbSymbolTable
 70
    19
  0
LTYPE
  5
14
330
5
100
AcDbSymbolTableRecord
100
AcDbLinetypeTableRecord
  2
ByBlock
 70
     0
  3

 72
    65
 73
     0
 40
0.0
  0
LTYPE
  5
15
330
5
100
AcDbSymbolTableRecord
100
AcDbLinetypeTableRecord
  2
ByLayer
 70
     0
  3

 72
    65
 73
     0
 40
0.0
  0
LTYPE
  5
16
330
5
100
AcDbSymbolTableRecord
100
AcDbLinetypeTableRecord
  2
Continuous
 70
     0
  3
Solid line
 72
    65
 73
     0
 40
0.0
  0
LTYPE
  5
50
330
5
100
AcDbSymbolTableRecord
100
AcDbLinetypeTableRecord
  2
Amconstr
 70
     0
  3
_______________________
 72
    65
 73
     2
 40
9999.0
 49
9999.0
 74
     0
 49
0.0
 74
     0
  0
LTYPE
  5
55
330
5
100
AcDbSymbolTableRecord
100
AcDbLinetypeTableRecord
  2
Amzigzag
 70
     0
  3
/\/-/\/-/\/-/\/-/\/-/\/
 72
    65
 73
     2
 40
11.0001
 49
0.0001
 74
     4
 75
   135
340
54
 46
0.04
 50
0.0
 44
0.0
 45
0.0
 49
-11.0
 74
     0
  0
LTYPE
  5
56
330
5
100
AcDbSymbolTableRecord
100
AcDbLinetypeTableRecord
  2
AM_DIN_F_W050
 70
     0
  3
__ __ __ __ __ __ __ __ __ __ __ __ __ __ __
 72
    65
 73
     2
 40
6.25
 49
4.75
 74
     0
 49
-1.5
 74
     0
  0
LTYPE
  5
57
330
5
100
AcDbSymbolTableRecord
100
AcDbLinetypeTableRecord
  2
AM_DIN_G_W050
 70
     0
  3
____ . ____ . ____ . ____ . ____ . ____ . ____
 72
    65
 73
     4
 40
13.75
 49
9.75
 74
     0
 49
-1.5
 74
     0
 49
1.0
 74
     0
 49
-1.5
 74
     0
  0
LTYPE
  5
58
330
5
100
AcDbSymbolTableRecord
100
AcDbLinetypeTableRecord
  2
AM_DIN_K_W050
 70
     0
  3
_____ . . _____ . . _____ . . ____ .. ____
 72
    65
 73
     6
 40
16.25
 49
9.75
 74
     0
 49
-1.5
 74
     0
 49
1.0
 74
     0
 49
-1.5
 74
     0
 49
1.0
 74
     0
 49
-1.5
 74
     0
  0
LTYPE
  5
59
330
5
100
AcDbSymbolTableRecord
100
AcDbLinetypeTableRecord
  2
AM_DIN_G_W050x2
 70
     0
  3
__ . __ . __ . __ . __ . __
 72
    65
 73
     4
 40
6.875
 49
4.75
 74
     0
 49
-0.875
 74
     0
 49
0.375
 74
     0
 49
-0.875
 74
     0
  0
LTYPE
  5
5A
330
5
100
AcDbSymbolTableRecord
100
AcDbLinetypeTableRecord
  2
AM_DIN_F_W050x2
 70
     0
  3
 _ _ _ _ _ _ _ _ _ _ _ _
 72
    65
 73
     2
 40
3.125
 49
2.25
 74
     0
 49
-0.875
 74
     0
  0
LTYPE
  5
68
330
5
100
AcDbSymbolTableRecord
100
AcDbLinetypeTableRecord
  2
ACDINWELD
 70
     0
  3
_ _ _ _ _
 72
    65
 73
     2
 40
2.0
 49
2.0
 74
     0
 49
-1.0
 74
     0
  0
LTYPE
  5
69
330
5
100
AcDbSymbolTableRecord
100
AcDbLinetypeTableRecord
  2
ACDINTGB
 70
     0
  3
__ . . __ . .
 72
    65
 73
     6
 40
9.0
 49
4.0
 74
     0
 49
-1.0
 74
     0
 49
1.0
 74
     0
 49
-1.0
 74
     0
 49
1.0
 74
     0
 49
-1.0
 74
     0
  0
LTYPE
  5
6A
330
5
100
AcDbSymbolTableRecord
100
AcDbLinetypeTableRecord
  2
ACDINTGL
 70
     0
  3
_ _ _ _ _
 72
    65
 73
     2
 40
3.0
 49
2.0
 74
     0
 49
-1.0
 74
     0
  0
LTYPE
  5
6C
330
5
100
AcDbSymbolTableRecord
100
AcDbLinetypeTableRecord
  2
CENTER
 70
     0
  3
__ . __
 72
    65
 73
     4
 40
7.0
 49
4.0
 74
     0
 49
-1.0
 74
     0
 49
1.0
 74
     0
 49
-1.0
 74
     0
  0
LTYPE
  5
7C6
330
5
100
AcDbSymbolTableRecord
100
AcDbLinetypeTableRecord
  2
PHANTOM2
 70
     0
  3
Phantom (.5x) ___ _ _ ___ _ _ ___ _ _ ___ _ _
 72
    65
 73
     6
 40
1.25
 49
0.625
 74
     0
 49
-0.125
 74
     0
 49
0.125
 74
     0
 49
-0.125
 74
     0
 49
0.125
 74
     0
 49
-0.125
 74
     0
  0
LTYPE
  5
66CE
330
5
100
AcDbSymbolTableRecord
100
AcDbLinetypeTableRecord
  2
HIDDEN
 70
     0
  3
Verdeckt
 72
    65
 73
     2
 40
9.525
 49
6.349999999999999
 74
     0
 49
-3.174999999999999
 74
     0
  0
LTYPE
  5
716A
330
5
100
AcDbSymbolTableRecord
100
AcDbLinetypeTableRecord
  2
AM_ISO02W050
 70
     0
  3
__ __ __ __ __ __ __ __ __ __ __ __ __ __ __
 72
    65
 73
     2
 40
7.5
 49
6.0
 74
     0
 49
-1.5
 74
     0
  0
LTYPE
  5
716B
330
5
100
AcDbSymbolTableRecord
100
AcDbLinetypeTableRecord
  2
AM_ISO08W050
 70
     0
  3
____ . ____ . ____ . ____ . ____ . ____ . ____
 72
    65
 73
     4
 40
18.0
 49
12.0
 74
     0
 49
-1.5
 74
     0
 49
3.0
 74
     0
 49
-1.5
 74
     0
  0
LTYPE
  5
716C
330
5
100
AcDbSymbolTableRecord
100
AcDbLinetypeTableRecord
  2
AM_ISO09W050
 70
     0
  3
_____ . . _____ . . _____ . . ____ .. ____
 72
    65
 73
     6
 40
22.5
 49
12.0
 74
     0
 49
-1.5
 74
     0
 49
3.0
 74
     0
 49
-1.5
 74
     0
 49
3.0
 74
     0
 49
-1.5
 74
     0
  0
LTYPE
  5
716D
330
5
100
AcDbSymbolTableRecord
100
AcDbLinetypeTableRecord
  2
AM_ISO08W050x2
 70
     0
  3
__ . __ . __ . __ . __ . __
 72
    65
 73
     4
 40
9.0
 49
6.0
 74
     0
 49
-0.75
 74
     0
 49
1.5
 74
     0
 49
-0.75
 74
     0
  0
LTYPE
  5
716E
330
5
100
AcDbSymbolTableRecord
100
AcDbLinetypeTableRecord
  2
AM_ISO02W050x2
 70
     0
  3
 _ _ _ _ _ _ _ _ _ _ _ _
 72
    65
 73
     2
 40
3.75
 49
3.0
 74
     0
 49
-0.75
 74
     0
  0
ENDTAB
  0
TABLE
  2
LAYER
  5
2
102
{ACAD_XDICTIONARY
360
6886
102
}
330
0
100
AcDbSymbolTable
 70
    11
  0
LAYER
  5
10
330
2
100
AcDbSymbolTableRecord
100
AcDbLayerTableRecord
  2
0
 70
     0
 62
     7
  6
Continuous
370
    -3
390
F
  0
LAYER
  5
A5
330
2
100
AcDbSymbolTableRecord
100
AcDbLayerTableRecord
  2
AM_7
 70
     0
 62
     4
  6
AM_DIN_G_W050
370
    25
390
F
  0
LAYER
  5
398
330
2
100
AcDbSymbolTableRecord
100
AcDbLayerTableRecord
  2
AM_5
 70
     0
 62
     3
  6
Continuous
370
    25
390
F
  0
LAYER
  5
3A8
330
2
100
AcDbSymbolTableRecord
100
AcDbLayerTableRecord
  2
Defpoints
 70
     0
 62
     7
  6
Continuous
290
     0
370
    -3
390
F
  0
LAYER
  5
3DF
330
2
100
AcDbSymbolTableRecord
100
AcDbLayerTableRecord
  2
AM_0
 70
     0
 62
     7
  6
Continuous
370
    50
390
F
  0
LAYER
  5
736
330
2
100
AcDbSymbolTableRecord
100
AcDbLayerTableRecord
  2
AM_VIEWS
 70
     0
 62
     1
  6
Continuous
290
     0
370
    25
390
F
  0
LAYER
  5
7CC
330
2
100
AcDbSymbolTableRecord
100
AcDbLayerTableRecord
  2
AM_BOR
 70
     0
 62
     7
  6
Continuous
370
    50
390
F
  0
LAYER
  5
84F
330
2
100
AcDbSymbolTableRecord
100
AcDbLayerTableRecord
  2
RAHM2
 70
     0
 62
     1
  6
Continuous
370
    -3
390
F
  0
LAYER
  5
851
330
2
100
AcDbSymbolTableRecord
100
AcDbLayerTableRecord
  2
RAHM3
 70
     0
 62
     2
  6
Continuous
370
    -3
390
F
  0
LAYER
  5
852
330
2
100
AcDbSymbolTableRecord
100
AcDbLayerTableRecord
  2
AM_6
 70
     0
 62
     2
  6
Continuous
370
    35
390
F
  0
LAYER
  5
22ED
330
2
100
AcDbSymbolTableRecord
100
AcDbLayerTableRecord
  2
AM_3
 70
     0
 62
     6
  6
AM_DIN_F_W050
370
    25
390
F
  0
ENDTAB
  0
TABLE
  2
STYLE
  5
3
330
0
100
AcDbSymbolTable
 70
     5
  0
STYLE
  5
11
330
3
100
AcDbSymbolTableRecord
100
AcDbTextStyleTableRecord
  2
STANDARD
 70
     0
 40
0.0
 41
1.0
 50
0.0
 71
     0
 42
2.5
  3
ISOCP.SHX
  4

  0
STYLE
  5
54
330
3
100
AcDbSymbolTableRecord
100
AcDbTextStyleTableRecord
  2

 70
     1
 40
0.0
 41
1.0
 50
0.0
 71
     0
 42
2.5
  3
ltypeshp.shx
  4

  0
STYLE
  5
5B
330
3
100
AcDbSymbolTableRecord
100
AcDbTextStyleTableRecord
  2
ACDINTS
 70
     0
 40
1.0
 41
1.0
 50
0.0
 71
     0
 42
2.5
  3
isocp.shx
  4

  0
STYLE
  5
67
330
3
100
AcDbSymbolTableRecord
100
AcDbTextStyleTableRecord
  2
ACDINGDT
 70
     0
 40
0.0
 41
1.0
 50
0.0
 71
     0
 42
2.5
  3
AMGDT
  4

  0
STYLE
  5
854
330
3
100
AcDbSymbolTableRecord
100
AcDbTextStyleTableRecord
  2
ROMANS
 70
     0
 40
0.0
 41
1.0
 50
0.0
 71
     0
 42
2.5
  3
romans.shx
  4

  0
ENDTAB
  0
TABLE
  2
VIEW
  5
6
330
0
100
AcDbSymbolTable
 70
     6
  0
VIEW
  5
8F6
330
6
100
AcDbSymbolTableRecord
100
AcDbViewTableRecord
  2
AM_VIEW1
 70
     1
 40
155.1492537313432
 10
146.6308444995469
 20
226.0746268656717
 41
312.1160173573029
 11
0.0
 21
0.0
 31
1.0
 12
0.0
 22
0.0
 32
0.0
 42
50.0
 43
0.0
 44
0.0
 50
0.0
 71
     0
281
     0
 72
     0
  0
VIEW
  5
8F7
330
6
100
AcDbSymbolTableRecord
100
AcDbViewTableRecord
  2
AM_VIEW2
 70
     1
 40
155.1492537313432
 10
273.3655734109007
 20
226.0746268656717
 41
312.1160173573029
 11
0.0
 21
0.0
 31
1.0
 12
0.0
 22
0.0
 32
0.0
 42
50.0
 43
0.0
 44
0.0
 50
0.0
 71
     0
281
     0
 72
     0
  0
VIEW
  5
8F8
330
6
100
AcDbSymbolTableRecord
100
AcDbViewTableRecord
  2
AM_VIEW3
 70
     1
 40
155.1492537313432
 10
146.6308444995469
 20
70.92537313432834
 41
312.1160173573029
 11
0.0
 21
0.0
 31
1.0
 12
0.0
 22
0.0
 32
0.0
 42
50.0
 43
0.0
 44
0.0
 50
0.0
 71
     0
281
     0
 72
     0
  0
VIEW
  5
8F9
330
6
100
AcDbSymbolTableRecord
100
AcDbViewTableRecord
  2
AM_VIEW4
 70
     1
 40
155.1492537313432
 10
273.3655734109007
 20
70.92537313432834
 41
312.1160173573029
 11
0.0
 21
0.0
 31
1.0
 12
0.0
 22
0.0
 32
0.0
 42
50.0
 43
0.0
 44
0.0
 50
0.0
 71
     0
281
     0
 72
     0
  0
VIEW
  5
8FA
330
6
100
AcDbSymbolTableRecord
100
AcDbViewTableRecord
  2
AM_VIEW5
 70
     1
 40
155.1492537313432
 10
209.9982089552239
 20
148.4999999999999
 41
312.1160173573029
 11
0.0
 21
0.0
 31
1.0
 12
0.0
 22
0.0
 32
0.0
 42
50.0
 43
0.0
 44
0.0
 50
0.0
 71
     0
281
     0
 72
     0
  0
VIEW
  5
8FB
330
6
100
AcDbSymbolTableRecord
100
AcDbViewTableRecord
  2
AM_VIEW6
 70
     1
 40
310.2954044776119
 10
209.9982089552238
 20
148.4999999999999
 41
624.2257923942586
 11
0.0
 21
0.0
 31
1.0
 12
0.0
 22
0.0
 32
0.0
 42
50.0
 43
0.0
 44
0.0
 50
0.0
 71
     0
281
     0
 72
     0
  0
ENDTAB
  0
TABLE
  2
UCS
  5
7
330
0
100
AcDbSymbolTable
 70
     0
  0
ENDTAB
  0
TABLE
  2
APPID
  5
9
330
0
100
AcDbSymbolTable
 70
    41
  0
APPID
  5
12
330
9
100
AcDbSymbolTableRecord
100
AcDbRegAppTableRecord
  2
ACAD
 70
     0
  0
APPID
  5
2C
330
9
100
AcDbSymbolTableRecord
100
AcDbRegAppTableRecord
  2
MCAD_NO_VIS
 70
     0
  0
APPID
  5
2D
330
9
100
AcDbSymbolTableRecord
100
AcDbRegAppTableRecord
  2
ACAD_TEMP_GRAPHIC
 70
     0
  0
APPID
  5
3E
330
9
100
AcDbSymbolTableRecord
100
AcDbRegAppTableRecord
  2
ACATTRIBSERVICES
 70
     0
  0
APPID
  5
96
330
9
100
AcDbSymbolTableRecord
100
AcDbRegAppTableRecord
  2
GENIUS_GENREC_14
 70
     0
  0
APPID
  5
97
330
9
100
AcDbSymbolTableRecord
100
AcDbRegAppTableRecord
  2
GENIUS_GENODEF_13
 70
     0
  0
APPID
  5
98
330
9
100
AcDbSymbolTableRecord
100
AcDbRegAppTableRecord
  2
GENIUS_GENOBJ-N-REC_13
 70
     0
  0
APPID
  5
A7
330
9
100
AcDbSymbolTableRecord
100
AcDbRegAppTableRecord
  2
GENIUS_GENOBJ-N-CEN_13
 70
     0
  0
APPID
  5
16E
330
9
100
AcDbSymbolTableRecord
100
AcDbRegAppTableRecord
  2
GENIUS_GENOLIS_13
 70
     0
  0
APPID
  5
16F
330
9
100
AcDbSymbolTableRecord
100
AcDbRegAppTableRecord
  2
GENIUS_GENOENT_13
 70
     0
  0
APPID
  5
170
330
9
100
AcDbSymbolTableRecord
100
AcDbRegAppTableRecord
  2
GENIUS_GENOBJ-N-CRS_13
 70
     0
  0
APPID
  5
171
330
9
100
AcDbSymbolTableRecord
100
AcDbRegAppTableRecord
  2
GENIUS_GENOREF_13
 70
     0
  0
APPID
  5
5CF
330
9
100
AcDbSymbolTableRecord
100
AcDbRegAppTableRecord
  2
ACAD_DIMASSOC_DIMLFAC
 70
     0
  0
APPID
  5
737
330
9
100
AcDbSymbolTableRecord
100
AcDbRegAppTableRecord
  2
GENIUS_GENSCREG_15
 70
     0
  0
APPID
  5
738
330
9
100
AcDbSymbolTableRecord
100
AcDbRegAppTableRecord
  2
GENIUS_GENOBJ-N-SDF_13
 70
     0
  0
APPID
  5
7D6
330
9
100
AcDbSymbolTableRecord
100
AcDbRegAppTableRecord
  2
GENIUS_GENBLLY_14
 70
     0
  0
APPID
  5
855
330
9
100
AcDbSymbolTableRecord
100
AcDbRegAppTableRecord
  2
GENIUS_GENTRA_14
 70
     0
  0
APPID
  5
856
330
9
100
AcDbSymbolTableRecord
100
AcDbRegAppTableRecord
  2
GENIUS_AMGTXT_16
 70
     0
  0
APPID
  5
8F4
330
9
100
AcDbSymbolTableRecord
100
AcDbRegAppTableRecord
  2
GENIUS_GENOBJ-N-TIT_13
 70
     0
  0
APPID
  5
8F5
330
9
100
AcDbSymbolTableRecord
100
AcDbRegAppTableRecord
  2
GENIUS_GENTITLE_13
 70
     0
  0
APPID
  5
925
330
9
100
AcDbSymbolTableRecord
100
AcDbRegAppTableRecord
  2
GENIUS_GENDIMSH_14
 70
     0
  0
APPID
  5
E66
330
9
100
AcDbSymbolTableRecord
100
AcDbRegAppTableRecord
  2
GENIUS_GENOBJ-N-ZOO_13
 70
     0
  0
APPID
  5
E67
330
9
100
AcDbSymbolTableRecord
100
AcDbRegAppTableRecord
  2
GENIUS_GENZOO_16
 70
     0
  0
APPID
  5
29C6
330
9
100
AcDbSymbolTableRecord
100
AcDbRegAppTableRecord
  2
GENIUS_GENDTOL_13
 70
     0
  0
APPID
  5
320C
330
9
100
AcDbSymbolTableRecord
100
AcDbRegAppTableRecord
  2
GENIUS_GENOBJ-N-HTC_13
 70
     0
  0
APPID
  5
320D
330
9
100
AcDbSymbolTableRecord
100
AcDbRegAppTableRecord
  2
GENIUS_GENHATCH_13
 70
     0
  0
APPID
  5
5443
330
9
100
AcDbSymbolTableRecord
100
AcDbRegAppTableRecord
  2
GENIUS_GENOBJ-F-SHCL_13
 70
     0
  0
APPID
  5
5444
330
9
100
AcDbSymbolTableRecord
100
AcDbRegAppTableRecord
  2
GENIUS_GEFMSH_13
 70
     0
  0
APPID
  5
5445
330
9
100
AcDbSymbolTableRecord
100
AcDbRegAppTableRecord
  2
GENIUS_GEFSH_13
 70
     0
  0
APPID
  5
5446
330
9
100
AcDbSymbolTableRecord
100
AcDbRegAppTableRecord
  2
GENIUS_GEFSHP_13
 70
     0
  0
APPID
  5
5454
330
9
100
AcDbSymbolTableRecord
100
AcDbRegAppTableRecord
  2
GENIUS_GENOBJ-F-SHS_13
 70
     0
  0
APPID
  5
66D0
330
9
100
AcDbSymbolTableRecord
100
AcDbRegAppTableRecord
  2
AD_DRAW
 70
     0
  0
APPID
  5
66EE
330
9
100
AcDbSymbolTableRecord
100
AcDbRegAppTableRecord
  2
DESIGNERASSEMBLIES
 70
     0
  0
APPID
  5
66F7
330
9
100
AcDbSymbolTableRecord
100
AcDbRegAppTableRecord
  2
ACAD_DSTYLE_DIMARC_LENGTH_SYMBOL
 70
     0
  0
APPID
  5
66F8
330
9
100
AcDbSymbolTableRecord
100
AcDbRegAppTableRecord
  2
ACAD_DSTYLE_DIMJOGGED_JOGANGLE_SYMBOL
 70
     0
  0
APPID
  5
6715
330
9
100
AcDbSymbolTableRecord
100
AcDbRegAppTableRecord
  2
ACADM_DIM_EDIT
 70
     0
  0
APPID
  5
6716
330
9
100
AcDbSymbolTableRecord
100
AcDbRegAppTableRecord
  2
AMDT_DM_ADJ
 70
     0
  0
APPID
  5
671E
330
9
100
AcDbSymbolTableRecord
100
AcDbRegAppTableRecord
  2
ACAD_EXEMPT_FROM_CAD_STANDARDS
 70
     0
  0
APPID
  5
676E
330
9
100
AcDbSymbolTableRecord
100
AcDbRegAppTableRecord
  2
ACAD_PSEXT
 70
     0
  0
APPID
  5
690D
330
9
100
AcDbSymbolTableRecord
100
AcDbRegAppTableRecord
  2
GENIUS_GENCEN_19
 70
     0
  0
APPID
  5
6A10
330
9
100
AcDbSymbolTableRecord
100
AcDbRegAppTableRecord
  2
AcAecLayerStandard
 70
     0
  0
ENDTAB
  0
TABLE
  2
DIMSTYLE
  5
A
330
0
100
AcDbSymbolTable
 70
     9
100
AcDbDimStyleTable
 71
     1
340
6F
  0
DIMSTYLE
105
6F
102
{ACAD_REACTORS
330
232D
330
232C
330
232B
330
232A
330
2332
330
2331
330
2330
330
232F
330
232E
330
2339
330
2336
330
233B
330
233A
330
233C
330
233D
330
24E4
330
2525
330
2566
330
4CF9
102
}
330
A
100
AcDbSymbolTableRecord
100
AcDbDimStyleTableRecord
  2
AM_DIN
 70
     0
  4
"
 41
2.5
 42
1.0
 43
10.0
 44
1.0
 47
0.1
 48
0.1
 73
     0
 74
     0
 77
     1
 78
     8
 79
     2
140
3.5
141
0.0
143
0.0393701
146
0.71
147
1.5
172
     1
176
   256
177
   256
178
     2
271
     2
272
     3
274
     4
283
     0
284
     8
340
11
371
    -1
372
    -1
1001
ACAD_DSTYLE_DIMARC_LENGTH_SYMBOL
1070
   379
1070
     0
1001
ACAD_DSTYLE_DIMJOGGED_JOGANGLE_SYMBOL
1070
   384
1040
1.570796326794896
  0
DIMSTYLE
105
70
102
{ACAD_REACTORS
330
25BB
102
}
330
A
100
AcDbSymbolTableRecord
100
AcDbDimStyleTableRecord
  2
AM_DIN$3
 70
     0
  4
"
 41
2.5
 42
1.0
 43
10.0
 44
1.0
 47
0.1
 48
0.1
 73
     0
 77
     1
 78
     8
 79
     2
140
3.5
141
0.0
143
0.0393701
146
0.71
147
1.5
176
   256
177
   256
178
     2
271
     2
272
     3
274
     4
283
     0
284
     8
288
     1
289
     0
340
11
371
    -1
372
    -1
1001
ACAD_DSTYLE_DIMARC_LENGTH_SYMBOL
1070
   379
1070
     0
1001
ACAD_DSTYLE_DIMJOGGED_JOGANGLE_SYMBOL
1070
   384
1040
1.570796326794896
  0
DIMSTYLE
105
71
102
{ACAD_REACTORS
330
2338
102
}
330
A
100
AcDbSymbolTableRecord
100
AcDbDimStyleTableRecord
  2
AM_DIN$4
 70
     0
  4
"
 41
2.5
 42
1.0
 43
10.0
 44
1.0
 47
0.1
 48
0.1
 73
     0
 77
     1
 78
     8
 79
     2
140
3.5
141
0.0
143
0.0393701
146
0.71
147
1.5
176
   256
177
   256
178
     2
271
     2
272
     3
274
     4
283
     0
284
     8
288
     1
289
     0
340
11
371
    -1
372
    -1
1001
ACAD_DSTYLE_DIMARC_LENGTH_SYMBOL
1070
   379
1070
     0
1001
ACAD_DSTYLE_DIMJOGGED_JOGANGLE_SYMBOL
1070
   384
1040
1.570796326794896
  0
DIMSTYLE
105
72
330
A
100
AcDbSymbolTableRecord
100
AcDbDimStyleTableRecord
  2
AM_DIN$6
 70
     0
  4
"
 41
2.5
 42
1.0
 43
10.0
 44
1.0
 47
0.1
 48
0.1
 73
     0
 74
     0
 78
     8
 79
     2
140
3.5
141
0.0
143
0.0393701
146
0.71
147
1.5
172
     1
176
   256
177
   256
178
     2
271
     2
272
     3
274
     4
283
     0
284
     8
340
11
371
    -1
372
    -1
1001
ACAD_DSTYLE_DIMARC_LENGTH_SYMBOL
1070
   379
1070
     0
1001
ACAD_DSTYLE_DIMJOGGED_JOGANGLE_SYMBOL
1070
   384
1040
1.570796326794896
  0
DIMSTYLE
105
73
330
A
100
AcDbSymbolTableRecord
100
AcDbDimStyleTableRecord
  2
AM_DIN$7
 70
     0
  4
"
 41
2.5
 42
1.0
 43
10.0
 44
1.0
 47
0.1
 48
0.1
 73
     0
 74
     0
 77
     1
 78
     8
 79
     2
140
5.0
141
0.0
143
0.0393701
146
0.71
147
1.5
172
     1
176
   256
177
   256
178
     2
271
     2
272
     3
274
     4
283
     0
284
     8
340
11
371
    -1
372
    -1
1001
ACAD_DSTYLE_DIMARC_LENGTH_SYMBOL
1070
   379
1070
     0
1001
ACAD_DSTYLE_DIMJOGGED_JOGANGLE_SYMBOL
1070
   384
1040
1.570796326794896
  0
DIMSTYLE
105
74
330
A
100
AcDbSymbolTableRecord
100
AcDbDimStyleTableRecord
  2
AM_DIN$SF
 70
     0
  4
"
 41
2.5
 42
1.0
 43
10.0
 44
1.0
 47
0.1
 48
0.1
 73
     0
 74
     0
 75
     1
 76
     1
 77
     1
 78
     8
 79
     2
140
3.5
141
0.0
143
0.0393701
146
0.71
147
1.5
172
     1
176
   256
177
   256
178
     2
271
     2
272
     3
274
     4
283
     0
284
     8
340
11
371
    -1
372
    -1
1001
ACAD_DSTYLE_DIMARC_LENGTH_SYMBOL
1070
   379
1070
     0
1001
ACAD_DSTYLE_DIMJOGGED_JOGANGLE_SYMBOL
1070
   384
1040
1.570796326794896
  0
DIMSTYLE
105
79
330
A
100
AcDbSymbolTableRecord
100
AcDbDimStyleTableRecord
  2
AM_DIN$SH
 70
     0
  4
"
 41
2.5
 42
1.0
 43
10.0
 44
1.0
 47
0.1
 48
0.1
 73
     0
 74
     0
 75
     1
 76
     1
 77
     1
 78
     8
 79
     2
140
3.5
141
0.0
143
0.0393701
144
2.0
146
0.71
147
1.5
172
     1
173
     1
176
   256
177
   256
178
     2
271
     2
272
     3
274
     4
283
     0
284
     8
340
11
343
75
371
    -1
372
    -1
1001
ACAD_DSTYLE_DIMARC_LENGTH_SYMBOL
1070
   379
1070
     0
1001
ACAD_DSTYLE_DIMJOGGED_JOGANGLE_SYMBOL
1070
   384
1040
1.570796326794896
  0
DIMSTYLE
105
7CF
330
A
100
AcDbSymbolTableRecord
100
AcDbDimStyleTableRecord
  2
Standard
 70
     0
340
11
  0
DIMSTYLE
105
691A
102
{ACAD_REACTORS
330
232D
330
232C
330
232B
330
232A
330
2332
330
2331
330
2330
330
232F
330
232E
330
2339
330
2336
330
233B
330
233A
330
233C
330
233D
330
24E4
330
2525
330
2566
330
4CF9
330
6CFB
330
6DC9
330
6DF9
330
6E1F
330
6EFE
102
}
330
A
100
AcDbSymbolTableRecord
100
AcDbDimStyleTableRecord
  2
AM_DIN$0
 70
     0
  4
"
 41
2.5
 42
1.0
 43
10.0
 44
1.0
 47
0.1
 48
0.1
 73
     0
 74
     0
 77
     1
 78
     8
 79
     2
140
3.5
141
0.0
143
0.0393701
146
0.71
147
1.5
172
     1
176
   256
177
   256
178
     2
271
     2
272
     3
274
     4
283
     0
284
     8
340
11
371
    -1
372
    -1
1001
ACAD_DSTYLE_DIMARC_LENGTH_SYMBOL
1070
   379
1070
     0
1001
ACAD_DSTYLE_DIMJOGGED_JOGANGLE_SYMBOL
1070
   384
1040
1.570796326794896
  0
ENDTAB
  0
TABLE
  2
BLOCK_RECORD
  5
1
330
0
100
AcDbSymbolTable
 70
    31
  0
BLOCK_RECORD
  5
1F
102
{ACAD_XDICTIONARY
360
332
102
}
330
1
100
AcDbSymbolTableRecord
100
AcDbBlockTableRecord
  2
*Model_Space
340
22
  0
BLOCK_RECORD
  5
20CF
330
1
100
AcDbSymbolTableRecord
100
AcDbBlockTableRecord
  2
*Paper_Space
340
20DF
  0
BLOCK_RECORD
  5
75
330
1
100
AcDbSymbolTableRecord
100
AcDbBlockTableRecord
  2
GENAXEH
340
0
  0
BLOCK_RECORD
  5
857
330
1
100
AcDbSymbolTableRecord
100
AcDbBlockTableRecord
  2
WB_KOPF_K
340
0
102
{BLKREFS
331
5A25
102
}
  0
BLOCK_RECORD
  5
13B5
330
1
100
AcDbSymbolTableRecord
100
AcDbBlockTableRecord
  2
DIN-A3
340
0
102
{BLKREFS
331
20D1
102
}
  0
BLOCK_RECORD
  5
233F
330
1
100
AcDbSymbolTableRecord
100
AcDbBlockTableRecord
  2
*D3
340
0
  0
BLOCK_RECORD
  5
234B
330
1
100
AcDbSymbolTableRecord
100
AcDbBlockTableRecord
  2
*D4
340
0
  0
BLOCK_RECORD
  5
2357
330
1
100
AcDbSymbolTableRecord
100
AcDbBlockTableRecord
  2
*D5
340
0
  0
BLOCK_RECORD
  5
2363
330
1
100
AcDbSymbolTableRecord
100
AcDbBlockTableRecord
  2
*D6
340
0
  0
BLOCK_RECORD
  5
236F
330
1
100
AcDbSymbolTableRecord
100
AcDbBlockTableRecord
  2
*D7
340
0
  0
BLOCK_RECORD
  5
237B
330
1
100
AcDbSymbolTableRecord
100
AcDbBlockTableRecord
  2
*D8
340
0
  0
BLOCK_RECORD
  5
2387
330
1
100
AcDbSymbolTableRecord
100
AcDbBlockTableRecord
  2
*D9
340
0
  0
BLOCK_RECORD
  5
2393
330
1
100
AcDbSymbolTableRecord
100
AcDbBlockTableRecord
  2
*D10
340
0
  0
BLOCK_RECORD
  5
239F
330
1
100
AcDbSymbolTableRecord
100
AcDbBlockTableRecord
  2
*D11
340
0
  0
BLOCK_RECORD
  5
23B4
330
1
100
AcDbSymbolTableRecord
100
AcDbBlockTableRecord
  2
*D12
340
0
  0
BLOCK_RECORD
  5
23BD
330
1
100
AcDbSymbolTableRecord
100
AcDbBlockTableRecord
  2
*D13
340
0
  0
BLOCK_RECORD
  5
23C9
330
1
100
AcDbSymbolTableRecord
100
AcDbBlockTableRecord
  2
*D14
340
0
  0
BLOCK_RECORD
  5
23D5
330
1
100
AcDbSymbolTableRecord
100
AcDbBlockTableRecord
  2
*D15
340
0
  0
BLOCK_RECORD
  5
23E1
330
1
100
AcDbSymbolTableRecord
100
AcDbBlockTableRecord
  2
*D16
340
0
  0
BLOCK_RECORD
  5
23ED
330
1
100
AcDbSymbolTableRecord
100
AcDbBlockTableRecord
  2
*D17
340
0
  0
BLOCK_RECORD
  5
23FB
330
1
100
AcDbSymbolTableRecord
100
AcDbBlockTableRecord
  2
*D18
340
0
  0
BLOCK_RECORD
  5
24E5
330
1
100
AcDbSymbolTableRecord
100
AcDbBlockTableRecord
  2
*D19
340
0
  0
BLOCK_RECORD
  5
2526
330
1
100
AcDbSymbolTableRecord
100
AcDbBlockTableRecord
  2
*D20
340
0
  0
BLOCK_RECORD
  5
2567
330
1
100
AcDbSymbolTableRecord
100
AcDbBlockTableRecord
  2
*D21
340
0
  0
BLOCK_RECORD
  5
25BC
330
1
100
AcDbSymbolTableRecord
100
AcDbBlockTableRecord
  2
*D22
340
0
  0
BLOCK_RECORD
  5
4CFA
330
1
100
AcDbSymbolTableRecord
100
AcDbBlockTableRecord
  2
*D23
340
0
  0
BLOCK_RECORD
  5
6CFC
330
1
100
AcDbSymbolTableRecord
100
AcDbBlockTableRecord
  2
*D24
340
0
  0
BLOCK_RECORD
  5
6DCA
330
1
100
AcDbSymbolTableRecord
100
AcDbBlockTableRecord
  2
*D25
340
0
  0
BLOCK_RECORD
  5
6DFA
330
1
100
AcDbSymbolTableRecord
100
AcDbBlockTableRecord
  2
*D26
340
0
  0
BLOCK_RECORD
  5
6E20
330
1
100
AcDbSymbolTableRecord
100
AcDbBlockTableRecord
  2
*D27
340
0
  0
BLOCK_RECORD
  5
6EFF
330
1
100
AcDbSymbolTableRecord
100
AcDbBlockTableRecord
  2
*D28
340
0
  0
BLOCK_RECORD
  5
6F47
330
1
100
AcDbSymbolTableRecord
100
AcDbBlockTableRecord
  2
*S29
340
0
102
{BLKREFS
331
3B13
102
}
  0
ENDTAB
  0
ENDSEC
  0
SECTION
  2
BLOCKS
  0
BLOCK
  5
20
330
1F
100
AcDbEntity
  8
0
100
AcDbBlockBegin
  2
*Model_Space
 70
     0
 10
0.0
 20
0.0
 30
0.0
  3
*Model_Space
  1

  0
ENDBLK
  5
21
330
1F
100
AcDbEntity
  8
0
100
AcDbBlockEnd
  0
BLOCK
  5
20DD
330
20CF
100
AcDbEntity
 67
     1
  8
0
100
AcDbBlockBegin
  2
*Paper_Space
 70
     0
 10
0.0
 20
0.0
 30
0.0
  3
*Paper_Space
  1

  0
ENDBLK
  5
20DE
330
20CF
100
AcDbEntity
 67
     1
  8
0
100
AcDbBlockEnd
  0
BLOCK
  5
77
330
75
100
AcDbEntity
  8
0
100
AcDbBlockBegin
  2
GENAXEH
 70
     0
 10
0.0
 20
0.0
 30
0.0
  3
GENAXEH
  1

  0
LINE
  5
76
330
75
100
AcDbEntity
  8
0
100
AcDbLine
 10
-1.0
 20
0.0
 30
0.0
 11
1.0
 21
0.0
 31
0.0
  0
ENDBLK
  5
78
330
75
100
AcDbEntity
  8
0
100
AcDbBlockEnd
  0
BLOCK
  5
59CD
330
857
100
AcDbEntity
  8
0
100
AcDbBlockBegin
  2
WB_KOPF_K
 70
     2
 10
0.0
 20
0.0
 30
0.0
  3
WB_KOPF_K
  1

  0
MTEXT
  5
59CE
330
857
100
AcDbEntity
  8
AM_BOR
100
AcDbMText
 10
-150.8799999999998
 20
14.34642053116684
 30
0.0
 40
7.0
 41
43.42999999999999
 71
     5
 72
     5
  1
{\fComic Sans MS|b0|i0|c0|p66;TT-Module}
 73
     1
 44
1.0
1001
GENIUS_AMGTXT_16
1040
7.0
1040
0.24
1001
ACAD
1000
MTEXTBEGIN
1070
    73
1070
     1
1070
    44
1040
1.0
1070
    74
1070
     0
1000
MTEXTEND
  0
TEXT
  5
59CF
330
857
100
AcDbEntity
  8
RAHM2
100
AcDbText
 10
-16.68827451984998
 20
20.83832249703542
 30
0.0
 40
1.8
  1
Rev.
 41
0.7
  7
ROMANS
100
AcDbText
  0
LINE
  5
59D0
330
857
100
AcDbEntity
  8
RAHM2
100
AcDbLine
 10
-18.0
 20
6.375000000000028
 30
0.0
 11
-18.0
 21
23.37500000000003
 31
0.0
  0
TEXT
  5
59D1
330
857
100
AcDbEntity
  8
RAHM2
100
AcDbText
 10
-39.90827451984967
 20
3.838322497035406
 30
0.0
 40
1.8
  1
Ersetzt durch
 41
0.7
  7
ROMANS
100
AcDbText
  0
POINT
  5
59D2
330
857
100
AcDbEntity
  8
RAHM2
100
AcDbPoint
 10
0.0
 20
0.0
 30
0.0
  0
TEXT
  5
59D3
330
857
100
AcDbEntity
  8
RAHM2
100
AcDbText
 10
-39.90827451984967
 20
1.272002880645132
 30
0.0
 40
1.8
  1
Replace through
 41
0.7
  7
ROMANS
100
AcDbText
  0
LINE
  5
59D4
330
857
100
AcDbEntity
  8
RAHM2
100
AcDbLine
 10
-41.21999999999968
 20
6.375000000000028
 30
0.0
 11
-41.21999999999968
 21
0.0
 31
0.0
  0
LINE
  5
59D5
330
857
100
AcDbEntity
  8
RAHM2
100
AcDbLine
 10
-118.8799999999998
 20
6.375000000000028
 30
0.0
 11
-118.8799999999998
 21
23.37500000000006
 31
0.0
  0
TEXT
  5
59D6
330
857
100
AcDbEntity
  8
RAHM2
100
AcDbText
 10
-163.5682745198498
 20
3.838322497035406
 30
0.0
 40
1.8
  1
EDV Nr.
 41
0.7
  7
ROMANS
100
AcDbText
  0
TEXT
  5
59D7
330
857
100
AcDbEntity
  8
RAHM2
100
AcDbText
 10
-122.3482745198496
 20
3.838322497035406
 30
0.0
 40
1.8
  1
Ursprung
 41
0.7
  7
ROMANS
100
AcDbText
  0
TEXT
  5
59D8
330
857
100
AcDbEntity
  8
RAHM2
100
AcDbText
 10
-163.5682745198498
 20
1.272002880645132
 30
0.0
 40
1.8
  1
EDV no.
 41
0.7
  7
ROMANS
100
AcDbText
  0
LINE
  5
59D9
330
857
100
AcDbEntity
  8
RAHM2
100
AcDbLine
 10
-164.8799999999998
 20
6.375000000000042
 30
0.0
 11
-164.8799999999998
 21
0.0
 31
0.0
  0
LINE
  5
59DA
330
857
100
AcDbEntity
  8
RAHM2
100
AcDbLine
 10
-123.6599999999996
 20
6.375000000000028
 30
0.0
 11
-123.6599999999996
 21
0.0
 31
0.0
  0
TEXT
  5
59DB
330
857
100
AcDbEntity
  8
RAHM2
100
AcDbText
 10
-122.3482745198496
 20
1.272002880645132
 30
0.0
 40
1.8
  1
Original
 41
0.7
  7
ROMANS
100
AcDbText
  0
LINE
  5
59DC
330
857
100
AcDbEntity
  8
RAHM2
100
AcDbLine
 10
-82.43999999999994
 20
6.375000000000028
 30
0.0
 11
-82.43999999999994
 21
0.0
 31
0.0
  0
TEXT
  5
59DD
330
857
100
AcDbEntity
  8
RAHM2
100
AcDbText
 10
-181.5682745198498
 20
3.838322497035406
 30
0.0
 40
1.8
  1
Format
 41
0.7
  7
ROMANS
100
AcDbText
  0
LINE
  5
59DE
330
857
100
AcDbEntity
  8
RAHM3
100
AcDbLine
 10
-182.8799999999998
 20
23.37500000000006
 30
0.0
 11
-182.8799999999998
 21
0.0
 31
0.0
  0
TEXT
  5
59DF
330
857
100
AcDbEntity
  8
RAHM2
100
AcDbText
 10
-181.5682745198498
 20
1.272002880645132
 30
0.0
 40
1.8
  1
Format
 41
0.7
  7
ROMANS
100
AcDbText
  0
LINE
  5
59E0
330
857
100
AcDbEntity
  8
RAHM3
100
AcDbLine
 10
-182.8799999999998
 20
23.37500000000006
 30
0.0
 11
0.0
 21
23.37500000000006
 31
0.0
  0
TEXT
  5
59E1
330
857
100
AcDbEntity
  8
RAHM2
100
AcDbText
 10
-81.12827451984992
 20
3.838322497035406
 30
0.0
 40
1.8
  1
Ersatz fuer
 41
0.7
  7
ROMANS
100
AcDbText
  0
LINE
  5
59E2
330
857
100
AcDbEntity
  8
RAHM3
100
AcDbLine
 10
-182.8799999999998
 20
0.0
 30
0.0
 11
0.0
 21
0.0
 31
0.0
  0
LINE
  5
59E3
330
857
100
AcDbEntity
  8
RAHM3
100
AcDbLine
 10
-182.8799999999998
 20
6.375000000000028
 30
0.0
 11
0.0
 21
6.375000000000028
 31
0.0
  0
TEXT
  5
59E4
330
857
100
AcDbEntity
  8
RAHM2
100
AcDbText
 10
-81.12827451984992
 20
1.272002880645132
 30
0.0
 40
1.8
  1
Compensation for
 41
0.7
  7
ROMANS
100
AcDbText
  0
ATTDEF
  5
59E5
330
857
100
AcDbEntity
  8
RAHM2
100
AcDbText
 10
-1.0
 20
2.021503231489191
 30
0.0
 40
3.047999999999999
  1

 41
0.75
 72
     2
 11
-1.0
 21
2.021503231489191
 31
0.0
100
AcDbAttributeDefinition
  3
Ersatz durch
  2
ERSATZ_DURCH
 70
     0
  0
ATTDEF
  5
59E6
330
857
100
AcDbEntity
  8
RAHM2
100
AcDbText
 10
-42.21999999999968
 20
2.021503231489191
 30
0.0
 40
3.047999999999999
  1

 41
0.75
 72
     2
 11
-42.21999999999968
 21
2.021503231489191
 31
0.0
100
AcDbAttributeDefinition
  3
Alte_Zeichnungsnummer
  2
ERSATZ
 70
     0
  0
ATTDEF
  5
59E7
330
857
100
AcDbEntity
  8
RAHM2
100
AcDbText
 10
-83.43999999999994
 20
2.021503231489191
 30
0.0
 40
3.047999999999999
  1

 41
0.75
 72
     2
 11
-83.43999999999994
 21
2.021503231489191
 31
0.0
100
AcDbAttributeDefinition
  3
Ursprungszeichnung
  2
URSPRUNG
 70
     0
  0
ATTDEF
  5
59E8
330
857
100
AcDbEntity
  8
AM_BOR
 62
     1
370
    25
100
AcDbText
 10
-137.291942403353
 20
1.0
 30
0.0
 40
3.047999999999999
  1

 41
0.75
 72
     1
 11
-137.291942403353
 21
1.0
 31
0.0
100
AcDbAttributeDefinition
  3
Dateiname
  2
GEN-TITLE-DWG{8.92}
 70
     0
1001
GENIUS_GENTRA_14
1002
{
1070
     3
1000
GENTRAPR,%s,(GENMSG gendwg 82)
1000
Dateiname
1000
d
1070
     0
1070
     0
1002
}
  0
ATTDEF
  5
59E9
330
857
100
AcDbEntity
  8
AM_BOR
 62
     1
370
    25
100
AcDbText
 10
-169.4399999999998
 20
1.0
 30
0.0
 40
3.047999999999999
  1

 41
0.75
 72
     1
 11
-169.4399999999998
 21
1.0
 31
0.0
100
AcDbAttributeDefinition
  3
Format
  2
GEN-TITLE-SIZ{2.46}
 70
     0
1001
GENIUS_GENTRA_14
1002
{
1070
     3
1000
GENTRAPR,%s,(GENMSG gentitus 90)
1000
Format
1000
d
1070
     0
1070
     0
1002
}
  0
ATTDEF
  5
59EA
330
857
100
AcDbEntity
  8
AM_BOR
100
AcDbText
 10
-16.88340304846952
 20
7.357759021560951
 30
0.0
 40
6.349999999999999
  1
-
 41
0.75
100
AcDbAttributeDefinition
  3
Revision
  2
REVISION
 70
     0
1001
GENIUS_GENTRA_14
1002
{
1070
     3
1000
GENTRAPR,%s,(GENMSG genuser 1)
1000
Revision
1000
d
1070
     0
1070
     0
1002
}
  0
ATTDEF
  5
59EB
330
857
100
AcDbEntity
  8
AM_BOR
100
AcDbText
 10
-116.7917923123015
 20
11.09638664867273
 30
0.0
 40
7.0
  1
-
 41
0.75
100
AcDbAttributeDefinition
  3
Zeichnungsnummer
  2
GEN-TITLE-NR
 70
     0
1001
GENIUS_GENTRA_14
1002
{
1070
     3
1000
GENTRAPR,%s,(GENMSG gentitus 85)
1000
Zeichnungsnummer
1000
d
1070
     0
1070
     0
1002
}
  0
ENDBLK
  5
59EC
330
857
100
AcDbEntity
  8
0
100
AcDbBlockEnd
  0
BLOCK
  5
13FC
330
13B5
100
AcDbEntity
  8
0
100
AcDbBlockBegin
  2
DIN-A3
 70
     0
 10
0.0
 20
0.0
 30
0.0
  3
DIN-A3
  1

  0
LINE
  5
13B6
330
13B5
100
AcDbEntity
  8
AM_BOR
 62
     1
370
    25
100
AcDbLine
 10
420.0
 20
297.0
 30
0.0
 11
419.9999999999999
 21
0.0
 31
0.0
  0
LINE
  5
13B7
330
13B5
100
AcDbEntity
  8
AM_BOR
 62
     1
370
    25
100
AcDbLine
 10
230.0
 20
5.00000000000005
 30
0.0
 11
230.0
 21
0.0000000000000233
 31
0.0
  0
LINE
  5
13B8
330
13B5
100
AcDbEntity
  8
AM_BOR
 62
     1
370
    25
100
AcDbLine
 10
409.9999999999999
 20
10.0
 30
0.0
 11
9.999999999999943
 21
10.00000000000005
 31
0.0
  0
TEXT
  5
13B9
330
13B5
100
AcDbEntity
  8
AM_BOR
 62
     1
370
    25
100
AcDbText
 10
411.0
 20
262.0
 30
0.0
 40
4.0
  1
A
  7
ACDINTS
100
AcDbText
  0
TEXT
  5
13BA
330
13B5
100
AcDbEntity
  8
AM_BOR
 62
     1
370
    25
100
AcDbText
 10
411.0
 20
216.0
 30
0.0
 40
4.0
  1
B
  7
ACDINTS
100
AcDbText
  0
TEXT
  5
13BB
330
13B5
100
AcDbEntity
  8
AM_BOR
 62
     1
370
    25
100
AcDbText
 10
411.0
 20
170.0
 30
0.0
 40
4.0
  1
C
  7
ACDINTS
100
AcDbText
  0
TEXT
  5
13BC
330
13B5
100
AcDbEntity
  8
AM_BOR
 62
     1
370
    25
100
AcDbText
 10
411.0
 20
123.0
 30
0.0
 40
4.0
  1
D
  7
ACDINTS
100
AcDbText
  0
TEXT
  5
13BD
330
13B5
100
AcDbEntity
  8
AM_BOR
 62
     1
370
    25
100
AcDbText
 10
411.0
 20
77.0
 30
0.0
 40
4.0
  1
E
  7
ACDINTS
100
AcDbText
  0
TEXT
  5
13BE
330
13B5
100
AcDbEntity
  8
AM_BOR
 62
     1
370
    25
100
AcDbText
 10
411.0
 20
31.0
 30
0.0
 40
4.0
  1
F
  7
ACDINTS
100
AcDbText
  0
LINE
  5
13BF
330
13B5
100
AcDbEntity
  8
AM_BOR
 62
     1
370
    25
100
AcDbLine
 10
415.0
 20
240.83
 30
0.0
 11
410.0
 21
240.83
 31
0.0
  0
LINE
  5
13C0
330
13B5
100
AcDbEntity
  8
AM_BOR
 62
     1
370
    25
100
AcDbLine
 10
415.0
 20
194.664
 30
0.0
 11
410.0
 21
194.664
 31
0.0
  0
LINE
  5
13C1
330
13B5
100
AcDbEntity
  8
AM_BOR
 62
     1
370
    25
100
AcDbLine
 10
415.0
 20
102.332
 30
0.0
 11
410.0
 21
102.332
 31
0.0
  0
LINE
  5
13C2
330
13B5
100
AcDbEntity
  8
AM_BOR
 62
     1
370
    25
100
AcDbLine
 10
415.0
 20
56.166
 30
0.0
 11
410.0
 21
56.166
 31
0.0
  0
LINE
  5
13C3
330
13B5
100
AcDbEntity
  8
AM_BOR
 62
     1
370
    25
100
AcDbLine
 10
60.0
 20
291.9999999999999
 30
0.0
 11
60.0
 21
287.0
 31
0.0
  0
LINE
  5
13C4
330
13B5
100
AcDbEntity
  8
AM_BOR
 62
     1
370
    25
100
AcDbLine
 10
110.0
 20
291.9999999999999
 30
0.0
 11
110.0
 21
287.0
 31
0.0
  0
LINE
  5
13C5
330
13B5
100
AcDbEntity
  8
AM_BOR
 62
     1
370
    25
100
AcDbLine
 10
160.0
 20
291.9999999999999
 30
0.0
 11
160.0
 21
287.0
 31
0.0
  0
LINE
  5
13C6
330
13B5
100
AcDbEntity
  8
AM_BOR
 62
     1
370
    25
100
AcDbLine
 10
260.0
 20
291.9999999999999
 30
0.0
 11
260.0
 21
287.0
 31
0.0
  0
LINE
  5
13C7
330
13B5
100
AcDbEntity
  8
AM_BOR
 62
     1
370
    25
100
AcDbLine
 10
310.0
 20
291.9999999999999
 30
0.0
 11
310.0
 21
287.0
 31
0.0
  0
LINE
  5
13C8
330
13B5
100
AcDbEntity
  8
AM_BOR
 62
     1
370
    25
100
AcDbLine
 10
360.0
 20
291.9999999999999
 30
0.0
 11
360.0
 21
287.0
 31
0.0
  0
TEXT
  5
13C9
330
13B5
100
AcDbEntity
  8
AM_BOR
 62
     1
370
    25
100
AcDbText
 10
384.0
 20
287.5
 30
0.0
 40
4.0
  1
8
  7
ACDINTS
100
AcDbText
  0
TEXT
  5
13CA
330
13B5
100
AcDbEntity
  8
AM_BOR
 62
     1
370
    25
100
AcDbText
 10
334.0
 20
287.5
 30
0.0
 40
4.0
  1
7
  7
ACDINTS
100
AcDbText
  0
TEXT
  5
13CB
330
13B5
100
AcDbEntity
  8
AM_BOR
 62
     1
370
    25
100
AcDbText
 10
284.0
 20
287.5
 30
0.0
 40
4.0
  1
6
  7
ACDINTS
100
AcDbText
  0
TEXT
  5
13CC
330
13B5
100
AcDbEntity
  8
AM_BOR
 62
     1
370
    25
100
AcDbText
 10
233.5
 20
287.5
 30
0.0
 40
4.0
  1
5
  7
ACDINTS
100
AcDbText
  0
TEXT
  5
13CD
330
13B5
100
AcDbEntity
  8
AM_BOR
 62
     1
370
    25
100
AcDbText
 10
183.5
 20
287.5
 30
0.0
 40
4.0
  1
4
  7
ACDINTS
100
AcDbText
  0
TEXT
  5
13CE
330
13B5
100
AcDbEntity
  8
AM_BOR
 62
     1
370
    25
100
AcDbText
 10
133.5
 20
287.5
 30
0.0
 40
4.0
  1
3
  7
ACDINTS
100
AcDbText
  0
TEXT
  5
13CF
330
13B5
100
AcDbEntity
  8
AM_BOR
 62
     1
370
    25
100
AcDbText
 10
83.49999999999999
 20
287.5
 30
0.0
 40
4.0
  1
2
  7
ACDINTS
100
AcDbText
  0
TEXT
  5
13D0
330
13B5
100
AcDbEntity
  8
AM_BOR
 62
     1
370
    25
100
AcDbText
 10
33.5
 20
287.5
 30
0.0
 40
4.0
  1
1
  7
ACDINTS
100
AcDbText
  0
TEXT
  5
13D1
330
13B5
100
AcDbEntity
  8
AM_BOR
 62
     1
370
    25
100
AcDbText
 10
33.5
 20
5.5
 30
0.0
 40
4.0
  1
1
  7
ACDINTS
100
AcDbText
  0
TEXT
  5
13D2
330
13B5
100
AcDbEntity
  8
AM_BOR
 62
     1
370
    25
100
AcDbText
 10
83.49999999999999
 20
5.5
 30
0.0
 40
4.0
  1
2
  7
ACDINTS
100
AcDbText
  0
TEXT
  5
13D3
330
13B5
100
AcDbEntity
  8
AM_BOR
 62
     1
370
    25
100
AcDbText
 10
133.5
 20
5.5
 30
0.0
 40
4.0
  1
3
  7
ACDINTS
100
AcDbText
  0
TEXT
  5
13D4
330
13B5
100
AcDbEntity
  8
AM_BOR
 62
     1
370
    25
100
AcDbText
 10
183.5
 20
5.5
 30
0.0
 40
4.0
  1
4
  7
ACDINTS
100
AcDbText
  0
TEXT
  5
13D5
330
13B5
100
AcDbEntity
  8
AM_BOR
 62
     1
370
    25
100
AcDbText
 10
6.0
 20
262.0
 30
0.0
 40
4.0
  1
A
  7
ACDINTS
100
AcDbText
  0
TEXT
  5
13D6
330
13B5
100
AcDbEntity
  8
AM_BOR
 62
     1
370
    25
100
AcDbText
 10
6.0
 20
216.0
 30
0.0
 40
4.0
  1
B
  7
ACDINTS
100
AcDbText
  0
TEXT
  5
13D7
330
13B5
100
AcDbEntity
  8
AM_BOR
 62
     1
370
    25
100
AcDbText
 10
6.0
 20
170.0
 30
0.0
 40
4.0
  1
C
  7
ACDINTS
100
AcDbText
  0
TEXT
  5
13D8
330
13B5
100
AcDbEntity
  8
AM_BOR
 62
     1
370
    25
100
AcDbText
 10
6.0
 20
123.0
 30
0.0
 40
4.0
  1
D
  7
ACDINTS
100
AcDbText
  0
TEXT
  5
13D9
330
13B5
100
AcDbEntity
  8
AM_BOR
 62
     1
370
    25
100
AcDbText
 10
6.0
 20
77.0
 30
0.0
 40
4.0
  1
E
  7
ACDINTS
100
AcDbText
  0
TEXT
  5
13DA
330
13B5
100
AcDbEntity
  8
AM_BOR
 62
     1
370
    25
100
AcDbText
 10
6.0
 20
31.0
 30
0.0
 40
4.0
  1
F
  7
ACDINTS
100
AcDbText
  0
LINE
  5
13DB
330
13B5
100
AcDbEntity
  8
AM_BOR
 62
     1
370
    25
100
AcDbLine
 10
160.0
 20
10.0
 30
0.0
 11
160.0
 21
5.0
 31
0.0
  0
LINE
  5
13DC
330
13B5
100
AcDbEntity
  8
AM_BOR
 62
     1
370
    25
100
AcDbLine
 10
110.0
 20
10.0
 30
0.0
 11
110.0
 21
5.0
 31
0.0
  0
LINE
  5
13DD
330
13B5
100
AcDbEntity
  8
AM_BOR
 62
     1
370
    25
100
AcDbLine
 10
60.0
 20
10.0
 30
0.0
 11
60.0
 21
5.0
 31
0.0
  0
LINE
  5
13DE
330
13B5
100
AcDbEntity
  8
AM_BOR
 62
     1
370
    25
100
AcDbLine
 10
10.0
 20
240.83
 30
0.0
 11
5.0
 21
240.83
 31
0.0
  0
LINE
  5
13DF
330
13B5
100
AcDbEntity
  8
AM_BOR
 62
     1
370
    25
100
AcDbLine
 10
10.0
 20
194.664
 30
0.0
 11
5.0
 21
194.664
 31
0.0
  0
LINE
  5
13E0
330
13B5
100
AcDbEntity
  8
AM_BOR
 62
     1
370
    25
100
AcDbLine
 10
10.0
 20
102.332
 30
0.0
 11
5.0
 21
102.332
 31
0.0
  0
LINE
  5
13E1
330
13B5
100
AcDbEntity
  8
AM_BOR
 62
     1
370
    25
100
AcDbLine
 10
10.0
 20
56.166
 30
0.0
 11
5.0
 21
56.166
 31
0.0
  0
LINE
  5
13E2
330
13B5
100
AcDbEntity
  8
AM_BOR
 62
     1
370
    25
100
AcDbLine
 10
410.0
 20
287.0
 30
0.0
 11
409.9999999999999
 21
10.0
 31
0.0
  0
LINE
  5
13E3
330
13B5
100
AcDbEntity
  8
AM_BOR
 62
     1
370
    25
100
AcDbLine
 10
10.00000000000001
 20
287.0
 30
0.0
 11
410.0
 21
287.0
 31
0.0
  0
LINE
  5
13E4
330
13B5
100
AcDbEntity
  8
AM_BOR
 62
     1
370
    25
100
AcDbLine
 10
10.0
 20
10.0
 30
0.0
 11
10.00000000000001
 21
287.0
 31
0.0
  0
LINE
  5
13E5
330
13B5
100
AcDbEntity
  8
0
100
AcDbLine
 10
414.9999999999999
 20
5.0
 30
0.0
 11
4.999999999999943
 21
5.00000000000005
 31
0.0
  0
LINE
  5
13E6
330
13B5
100
AcDbEntity
  8
0
100
AcDbLine
 10
415.0
 20
292.0
 30
0.0
 11
414.9999999999999
 21
5.0
 31
0.0
  0
LINE
  5
13E7
330
13B5
100
AcDbEntity
  8
0
100
AcDbLine
 10
5.000000000000017
 20
292.0
 30
0.0
 11
415.0
 21
292.0
 31
0.0
  0
LINE
  5
13E8
330
13B5
100
AcDbEntity
  8
AM_BOR
 62
     1
370
    25
100
AcDbLine
 10
0.0000000000000182
 20
297.0
 30
0.0
 11
420.0
 21
297.0
 31
0.0
  0
LINE
  5
13E9
330
13B5
100
AcDbEntity
  8
AM_BOR
 62
     1
370
    25
100
AcDbLine
 10
0.0
 20
0.0
 30
0.0
 11
0.0000000000000182
 21
297.0
 31
0.0
  0
LINE
  5
13EA
330
13B5
100
AcDbEntity
  8
AM_BOR
 62
     1
370
    25
100
AcDbLine
 10
125.0
 20
0.0000000000000514
 30
0.0
 11
125.0
 21
5.000000000000035
 31
0.0
  0
TEXT
  5
13EB
330
13B5
100
AcDbEntity
  8
0
 60
     1
100
AcDbText
 10
420.0
 20
297.0
 30
0.0
 40
2.0
  1
!GENTITLE-MAX
  7
ACDINTS
100
AcDbText
  0
TEXT
  5
13EC
330
13B5
100
AcDbEntity
  8
0
 60
     1
100
AcDbText
 10
410.0
 20
287.0
 30
0.0
 40
2.0
  1
!GENTITLE-RU
  7
ACDINTS
100
AcDbText
  0
TEXT
  5
13ED
330
13B5
100
AcDbEntity
  8
0
 60
     1
100
AcDbText
 10
409.9999999999999
 20
10.0
 30
0.0
 40
2.0
  1
!GENTITLE-INSERT
  7
ACDINTS
100
AcDbText
  0
TEXT
  5
13EE
330
13B5
100
AcDbEntity
  8
0
 60
     1
100
AcDbText
 10
10.0
 20
10.00000000000005
 30
0.0
 40
2.0
  1
!GENTITLE-LL
  7
ACDINTS
100
AcDbText
  0
LINE
  5
13EF
330
13B5
100
AcDbEntity
  8
0
100
AcDbLine
 10
5.0
 20
5.0
 30
0.0
 11
5.000000000000017
 21
292.0
 31
0.0
  0
LINE
  5
13F0
330
13B5
100
AcDbEntity
  8
AM_BOR
 62
     1
370
    25
100
AcDbLine
 10
419.9999999999999
 20
0.0
 30
0.0
 11
-0.0000000000000568
 21
0.0000000000000514
 31
0.0
  0
LINE
  5
13F1
330
13B5
100
AcDbEntity
  8
AM_BOR
 62
     2
370
    35
100
AcDbLine
 10
210.0
 20
5.000000000000024
 30
0.0
 11
209.9999999999999
 21
10.00000000000002
 31
0.0
  0
LINE
  5
13F2
330
13B5
100
AcDbEntity
  8
AM_BOR
 62
     2
370
    35
100
AcDbLine
 10
415.0
 20
148.5
 30
0.0
 11
410.0
 21
148.5
 31
0.0
  0
LINE
  5
13F3
330
13B5
100
AcDbEntity
  8
AM_BOR
 62
     2
370
    35
100
AcDbLine
 10
5.000000000000008
 20
148.5
 30
0.0
 11
10.00000000000001
 21
148.5
 31
0.0
  0
LINE
  5
13F4
330
13B5
100
AcDbEntity
  8
AM_BOR
 62
     2
370
    35
100
AcDbLine
 10
210.0
 20
292.0
 30
0.0
 11
210.0
 21
287.0
 31
0.0
  0
TEXT
  5
13F5
330
13B5
100
AcDbEntity
  8
AM_BOR
 62
     1
370
    25
100
AcDbText
 10
233.4999999999999
 20
5.499999999999943
 30
0.0
 40
4.0
  1
5
  7
ACDINTS
100
AcDbText
  0
TEXT
  5
13F6
330
13B5
100
AcDbEntity
  8
AM_BOR
 62
     1
370
    25
100
AcDbText
 10
283.9999999999999
 20
5.499999999999943
 30
0.0
 40
4.0
  1
6
  7
ACDINTS
100
AcDbText
  0
LINE
  5
13F7
330
13B5
100
AcDbEntity
  8
AM_BOR
 62
     1
370
    25
100
AcDbLine
 10
259.9999999999999
 20
9.999999999999943
 30
0.0
 11
259.9999999999999
 21
4.999999999999943
 31
0.0
  0
TEXT
  5
13F8
330
13B5
100
AcDbEntity
  8
AM_BOR
 62
     1
370
    25
100
AcDbText
 10
333.9999999999999
 20
5.499999999999943
 30
0.0
 40
4.0
  1
7
  7
ACDINTS
100
AcDbText
  0
LINE
  5
13F9
330
13B5
100
AcDbEntity
  8
AM_BOR
 62
     1
370
    25
100
AcDbLine
 10
359.9999999999999
 20
9.999999999999943
 30
0.0
 11
359.9999999999999
 21
4.999999999999943
 31
0.0
  0
LINE
  5
13FA
330
13B5
100
AcDbEntity
  8
AM_BOR
 62
     1
370
    25
100
AcDbLine
 10
309.9999999999999
 20
9.999999999999943
 30
0.0
 11
309.9999999999999
 21
4.999999999999943
 31
0.0
  0
TEXT
  5
13FB
330
13B5
100
AcDbEntity
  8
AM_BOR
 62
     1
370
    25
100
AcDbText
 10
383.9999999999999
 20
5.499999999999943
 30
0.0
 40
4.0
  1
8
  7
ACDINTS
100
AcDbText
  0
ENDBLK
  5
13FD
330
13B5
100
AcDbEntity
  8
0
100
AcDbBlockEnd
  0
BLOCK
  5
2349
330
233F
100
AcDbEntity
  8
0
100
AcDbBlockBegin
  2
*D3
 70
     1
 10
0.0
 20
0.0
 30
0.0
  3
*D3
  1

  0
LINE
  5
4FE2
330
233F
100
AcDbEntity
  8
AM_5
100
AcDbLine
 10
361.5546866124687
 20
364.5559214349445
 30
0.0
 11
52.55468661246825
 21
364.5559214349445
 31
0.0
  0
LINE
  5
4FE3
330
233F
100
AcDbEntity
  8
AM_5
100
AcDbLine
 10
136.5546866124687
 20
184.5559214349444
 30
0.0
 11
52.55468661246823
 21
184.5559214349445
 31
0.0
  0
LINE
  5
4FE4
330
233F
100
AcDbEntity
  8
AM_5
100
AcDbLine
 10
54.55468661246826
 20
359.5559214349445
 30
0.0
 11
54.55468661246823
 21
189.5559214349445
 31
0.0
  0
SOLID
  5
4FE5
330
233F
100
AcDbEntity
  8
AM_5
100
AcDbTrace
 10
53.72135327913493
 20
359.5559214349445
 30
0.0
 11
55.3880199458016
 21
359.5559214349445
 31
0.0
 12
54.55468661246826
 22
364.5559214349445
 32
0.0
 13
54.55468661246826
 23
364.5559214349445
 33
0.0
  0
SOLID
  5
4FE6
330
233F
100
AcDbEntity
  8
AM_5
100
AcDbTrace
 10
53.7213532791349
 20
189.5559214349445
 30
0.0
 11
55.38801994580157
 21
189.5559214349445
 31
0.0
 12
54.55468661246823
 22
184.5559214349445
 32
0.0
 13
54.55468661246823
 23
184.5559214349445
 33
0.0
  0
MTEXT
  5
4FE7
330
233F
100
AcDbEntity
  8
AM_5
 62
     2
100
AcDbMText
 10
48.0546866124682
 20
274.5559214349445
 30
0.0
 40
7.0
 41
0.0
 71
     5
 72
     1
  1
180
 11
0.0000000000000001
 21
1.0
 31
0.0
 73
     1
 44
1.0
1001
ACAD
1000
MTEXTBEGIN
1070
    73
1070
     1
1070
    44
1040
1.0
1070
    74
1070
     0
1000
MTEXTEND
  0
POINT
  5
4FE8
330
233F
100
AcDbEntity
  8
Defpoints
 62
     0
100
AcDbPoint
 10
363.5546866124687
 20
364.5559214349445
 30
0.0
  0
POINT
  5
4FE9
330
233F
100
AcDbEntity
  8
Defpoints
 62
     0
100
AcDbPoint
 10
138.5546866124687
 20
184.5559214349444
 30
0.0
  0
POINT
  5
4FEA
330
233F
100
AcDbEntity
  8
Defpoints
 62
     0
100
AcDbPoint
 10
54.55468661246823
 20
184.5559214349445
 30
0.0
  0
ENDBLK
  5
234A
330
233F
100
AcDbEntity
  8
0
100
AcDbBlockEnd
  0
BLOCK
  5
2355
330
234B
100
AcDbEntity
  8
0
100
AcDbBlockBegin
  2
*D4
 70
     1
 10
0.0
 20
0.0
 30
0.0
  3
*D4
  1

  0
LINE
  5
4FEB
330
234B
100
AcDbEntity
  8
AM_5
100
AcDbLine
 10
361.5546866124687
 20
364.5559214349445
 30
0.0
 11
112.5546866124687
 21
364.5559214349445
 31
0.0
  0
LINE
  5
4FEC
330
234B
100
AcDbEntity
  8
AM_5
100
AcDbLine
 10
258.5546866124689
 20
315.5559214349445
 30
0.0
 11
112.5546866124687
 21
315.5559214349445
 31
0.0
  0
LINE
  5
4FED
330
234B
100
AcDbEntity
  8
AM_5
100
AcDbLine
 10
114.5546866124687
 20
359.5559214349445
 30
0.0
 11
114.5546866124687
 21
320.5559214349445
 31
0.0
  0
SOLID
  5
4FEE
330
234B
100
AcDbEntity
  8
AM_5
100
AcDbTrace
 10
113.7213532791353
 20
359.5559214349445
 30
0.0
 11
115.388019945802
 21
359.5559214349445
 31
0.0
 12
114.5546866124687
 22
364.5559214349445
 32
0.0
 13
114.5546866124687
 23
364.5559214349445
 33
0.0
  0
SOLID
  5
4FEF
330
234B
100
AcDbEntity
  8
AM_5
100
AcDbTrace
 10
113.7213532791353
 20
320.5559214349445
 30
0.0
 11
115.388019945802
 21
320.5559214349445
 31
0.0
 12
114.5546866124687
 22
315.5559214349445
 32
0.0
 13
114.5546866124687
 23
315.5559214349445
 33
0.0
  0
MTEXT
  5
4FF0
330
234B
100
AcDbEntity
  8
AM_5
 62
     2
100
AcDbMText
 10
108.0546866124686
 20
340.0559214349446
 30
0.0
 40
7.0
 41
0.0
 71
     5
 72
     1
  1
49
 11
0.0000000000000001
 21
1.0
 31
0.0
 73
     1
 44
1.0
1001
ACAD
1000
MTEXTBEGIN
1070
    73
1070
     1
1070
    44
1040
1.0
1070
    74
1070
     0
1000
MTEXTEND
  0
POINT
  5
4FF1
330
234B
100
AcDbEntity
  8
Defpoints
 62
     0
100
AcDbPoint
 10
363.5546866124687
 20
364.5559214349445
 30
0.0
  0
POINT
  5
4FF2
330
234B
100
AcDbEntity
  8
Defpoints
 62
     0
100
AcDbPoint
 10
260.5546866124689
 20
315.5559214349445
 30
0.0
  0
POINT
  5
4FF3
330
234B
100
AcDbEntity
  8
Defpoints
 62
     0
100
AcDbPoint
 10
114.5546866124687
 20
315.5559214349445
 30
0.0
  0
ENDBLK
  5
2356
330
234B
100
AcDbEntity
  8
0
100
AcDbBlockEnd
  0
BLOCK
  5
2361
330
2357
100
AcDbEntity
  8
0
100
AcDbBlockBegin
  2
*D5
 70
     1
 10
0.0
 20
0.0
 30
0.0
  3
*D5
  1

  0
LINE
  5
4FF4
330
2357
100
AcDbEntity
  8
AM_5
100
AcDbLine
 10
361.5546866124687
 20
364.5559214349445
 30
0.0
 11
92.55468661246871
 21
364.5559214349445
 31
0.0
  0
LINE
  5
4FF5
330
2357
100
AcDbEntity
  8
AM_5
100
AcDbLine
 10
278.5546866124687
 20
294.5559214349445
 30
0.0
 11
92.55468661246871
 21
294.5559214349446
 31
0.0
  0
LINE
  5
4FF6
330
2357
100
AcDbEntity
  8
AM_5
100
AcDbLine
 10
94.5546866124687
 20
359.5559214349445
 30
0.0
 11
94.55468661246868
 21
299.5559214349445
 31
0.0
  0
SOLID
  5
4FF7
330
2357
100
AcDbEntity
  8
AM_5
100
AcDbTrace
 10
93.72135327913538
 20
359.5559214349445
 30
0.0
 11
95.38801994580202
 21
359.5559214349445
 31
0.0
 12
94.5546866124687
 22
364.5559214349445
 32
0.0
 13
94.5546866124687
 23
364.5559214349445
 33
0.0
  0
SOLID
  5
4FF8
330
2357
100
AcDbEntity
  8
AM_5
100
AcDbTrace
 10
93.72135327913536
 20
299.5559214349445
 30
0.0
 11
95.38801994580202
 21
299.5559214349445
 31
0.0
 12
94.55468661246868
 22
294.5559214349446
 32
0.0
 13
94.55468661246868
 23
294.5559214349446
 33
0.0
  0
MTEXT
  5
4FF9
330
2357
100
AcDbEntity
  8
AM_5
 62
     2
100
AcDbMText
 10
88.05468661246862
 20
329.5559214349446
 30
0.0
 40
7.0
 41
0.0
 71
     5
 72
     1
  1
70
 11
0.0000000000000001
 21
1.0
 31
0.0
 73
     1
 44
1.0
1001
ACAD
1000
MTEXTBEGIN
1070
    73
1070
     1
1070
    44
1040
1.0
1070
    74
1070
     0
1000
MTEXTEND
  0
POINT
  5
4FFA
330
2357
100
AcDbEntity
  8
Defpoints
 62
     0
100
AcDbPoint
 10
363.5546866124687
 20
364.5559214349445
 30
0.0
  0
POINT
  5
4FFB
330
2357
100
AcDbEntity
  8
Defpoints
 62
     0
100
AcDbPoint
 10
280.5546866124687
 20
294.5559214349445
 30
0.0
  0
POINT
  5
4FFC
330
2357
100
AcDbEntity
  8
Defpoints
 62
     0
100
AcDbPoint
 10
94.55468661246868
 20
294.5559214349446
 30
0.0
  0
ENDBLK
  5
2362
330
2357
100
AcDbEntity
  8
0
100
AcDbBlockEnd
  0
BLOCK
  5
236D
330
2363
100
AcDbEntity
  8
0
100
AcDbBlockBegin
  2
*D6
 70
     1
 10
0.0
 20
0.0
 30
0.0
  3
*D6
  1

  0
LINE
  5
4FFD
330
2363
100
AcDbEntity
  8
AM_5
100
AcDbLine
 10
361.5546866124687
 20
364.5559214349445
 30
0.0
 11
72.55468661246871
 21
364.5559214349445
 31
0.0
  0
LINE
  5
4FFE
330
2363
100
AcDbEntity
  8
AM_5
100
AcDbLine
 10
188.5546866124687
 20
224.5559214349445
 30
0.0
 11
72.55468661246869
 21
224.5559214349445
 31
0.0
  0
LINE
  5
4FFF
330
2363
100
AcDbEntity
  8
AM_5
100
AcDbLine
 10
74.55468661246872
 20
359.5559214349445
 30
0.0
 11
74.55468661246868
 21
229.5559214349445
 31
0.0
  0
SOLID
  5
5000
330
2363
100
AcDbEntity
  8
AM_5
100
AcDbTrace
 10
73.72135327913539
 20
359.5559214349445
 30
0.0
 11
75.38801994580204
 21
359.5559214349445
 31
0.0
 12
74.55468661246872
 22
364.5559214349445
 32
0.0
 13
74.55468661246872
 23
364.5559214349445
 33
0.0
  0
SOLID
  5
5001
330
2363
100
AcDbEntity
  8
AM_5
100
AcDbTrace
 10
73.72135327913536
 20
229.5559214349445
 30
0.0
 11
75.38801994580201
 21
229.5559214349445
 31
0.0
 12
74.55468661246868
 22
224.5559214349445
 32
0.0
 13
74.55468661246868
 23
224.5559214349445
 33
0.0
  0
MTEXT
  5
5002
330
2363
100
AcDbEntity
  8
AM_5
 62
     2
100
AcDbMText
 10
68.05468661246864
 20
294.5559214349446
 30
0.0
 40
7.0
 41
0.0
 71
     5
 72
     1
  1
140
 11
0.0000000000000001
 21
1.0
 31
0.0
 73
     1
 44
1.0
1001
ACAD
1000
MTEXTBEGIN
1070
    73
1070
     1
1070
    44
1040
1.0
1070
    74
1070
     0
1000
MTEXTEND
  0
POINT
  5
5003
330
2363
100
AcDbEntity
  8
Defpoints
 62
     0
100
AcDbPoint
 10
363.5546866124687
 20
364.5559214349445
 30
0.0
  0
POINT
  5
5004
330
2363
100
AcDbEntity
  8
Defpoints
 62
     0
100
AcDbPoint
 10
190.5546866124686
 20
224.5559214349445
 30
0.0
  0
POINT
  5
5005
330
2363
100
AcDbEntity
  8
Defpoints
 62
     0
100
AcDbPoint
 10
74.55468661246868
 20
224.5559214349445
 30
0.0
  0
ENDBLK
  5
236E
330
2363
100
AcDbEntity
  8
0
100
AcDbBlockEnd
  0
BLOCK
  5
2379
330
236F
100
AcDbEntity
  8
0
100
AcDbBlockBegin
  2
*D7
 70
     1
 10
0.0
 20
0.0
 30
0.0
  3
*D7
  1

  0
LINE
  5
4FB5
330
236F
100
AcDbEntity
  8
AM_5
100
AcDbLine
 10
388.5546866124687
 20
179.5559214349444
 30
0.0
 11
388.5546866124687
 21
138.5559214349443
 31
0.0
  0
LINE
  5
4FB6
330
236F
100
AcDbEntity
  8
AM_5
100
AcDbLine
 10
288.5546866124687
 20
284.5559214349445
 30
0.0
 11
288.5546866124687
 21
138.5559214349443
 31
0.0
  0
LINE
  5
4FB7
330
236F
100
AcDbEntity
  8
AM_5
100
AcDbLine
 10
383.5546866124687
 20
140.5559214349444
 30
0.0
 11
293.5546866124687
 21
140.5559214349444
 31
0.0
  0
SOLID
  5
4FB8
330
236F
100
AcDbEntity
  8
AM_5
100
AcDbTrace
 10
383.5546866124687
 20
141.3892547682777
 30
0.0
 11
383.5546866124687
 21
139.722588101611
 31
0.0
 12
388.5546866124687
 22
140.5559214349444
 32
0.0
 13
388.5546866124687
 23
140.5559214349444
 33
0.0
  0
SOLID
  5
4FB9
330
236F
100
AcDbEntity
  8
AM_5
100
AcDbTrace
 10
293.5546866124687
 20
141.3892547682777
 30
0.0
 11
293.5546866124687
 21
139.722588101611
 31
0.0
 12
288.5546866124687
 22
140.5559214349444
 32
0.0
 13
288.5546866124687
 23
140.5559214349444
 33
0.0
  0
MTEXT
  5
4FBA
330
236F
100
AcDbEntity
  8
AM_5
 62
     2
100
AcDbMText
 10
338.5546866124687
 20
147.0559214349443
 30
0.0
 40
7.0
 41
0.0
 71
     5
 72
     1
  1
100
 73
     1
 44
1.0
1001
ACAD
1000
MTEXTBEGIN
1070
    73
1070
     1
1070
    44
1040
1.0
1070
    74
1070
     0
1000
MTEXTEND
  0
POINT
  5
4FBB
330
236F
100
AcDbEntity
  8
Defpoints
 62
     0
100
AcDbPoint
 10
388.5546866124687
 20
181.5559214349445
 30
0.0
  0
POINT
  5
4FBC
330
236F
100
AcDbEntity
  8
Defpoints
 62
     0
100
AcDbPoint
 10
288.5546866124687
 20
286.5559214349445
 30
0.0
  0
POINT
  5
4FBD
330
236F
100
AcDbEntity
  8
Defpoints
 62
     0
100
AcDbPoint
 10
288.5546866124687
 20
140.5559214349444
 30
0.0
  0
ENDBLK
  5
237A
330
236F
100
AcDbEntity
  8
0
100
AcDbBlockEnd
  0
BLOCK
  5
2385
330
237B
100
AcDbEntity
  8
0
100
AcDbBlockBegin
  2
*D8
 70
     1
 10
0.0
 20
0.0
 30
0.0
  3
*D8
  1

  0
LINE
  5
4FBE
330
237B
100
AcDbEntity
  8
AM_5
100
AcDbLine
 10
388.5546866124687
 20
182.5559214349445
 30
0.0
 11
388.5546866124687
 21
118.5559214349444
 31
0.0
  0
LINE
  5
4FBF
330
237B
100
AcDbEntity
  8
AM_5
100
AcDbLine
 10
268.5546866124689
 20
305.5559214349445
 30
0.0
 11
268.5546866124689
 21
118.5559214349444
 31
0.0
  0
LINE
  5
4FC0
330
237B
100
AcDbEntity
  8
AM_5
100
AcDbLine
 10
383.5546866124687
 20
120.5559214349444
 30
0.0
 11
273.5546866124689
 21
120.5559214349444
 31
0.0
  0
SOLID
  5
4FC1
330
237B
100
AcDbEntity
  8
AM_5
100
AcDbTrace
 10
383.5546866124687
 20
121.3892547682777
 30
0.0
 11
383.5546866124687
 21
119.722588101611
 31
0.0
 12
388.5546866124687
 22
120.5559214349444
 32
0.0
 13
388.5546866124687
 23
120.5559214349444
 33
0.0
  0
SOLID
  5
4FC2
330
237B
100
AcDbEntity
  8
AM_5
100
AcDbTrace
 10
273.5546866124689
 20
121.3892547682777
 30
0.0
 11
273.5546866124689
 21
119.722588101611
 31
0.0
 12
268.5546866124689
 22
120.5559214349444
 32
0.0
 13
268.5546866124689
 23
120.5559214349444
 33
0.0
  0
MTEXT
  5
4FC3
330
237B
100
AcDbEntity
  8
AM_5
 62
     2
100
AcDbMText
 10
328.5546866124688
 20
127.0566104113223
 30
0.0
 40
7.0
 41
0.0
 71
     5
 72
     1
  1
120
 73
     1
 44
1.0
1001
ACAD
1000
MTEXTBEGIN
1070
    73
1070
     1
1070
    44
1040
1.0
1070
    74
1070
     0
1000
MTEXTEND
  0
POINT
  5
4FC4
330
237B
100
AcDbEntity
  8
Defpoints
 62
     0
100
AcDbPoint
 10
388.5546866124687
 20
184.5559214349444
 30
0.0
  0
POINT
  5
4FC5
330
237B
100
AcDbEntity
  8
Defpoints
 62
     0
100
AcDbPoint
 10
268.5546866124689
 20
307.5559214349445
 30
0.0
  0
POINT
  5
4FC6
330
237B
100
AcDbEntity
  8
Defpoints
 62
     0
100
AcDbPoint
 10
268.5546866124689
 20
120.5559214349444
 30
0.0
  0
ENDBLK
  5
2386
330
237B
100
AcDbEntity
  8
0
100
AcDbBlockEnd
  0
BLOCK
  5
2391
330
2387
100
AcDbEntity
  8
0
100
AcDbBlockBegin
  2
*D9
 70
     1
 10
0.0
 20
0.0
 30
0.0
  3
*D9
  1

  0
LINE
  5
4FC7
330
2387
100
AcDbEntity
  8
AM_5
100
AcDbLine
 10
388.5546866124687
 20
179.5559214349444
 30
0.0
 11
388.5546866124687
 21
98.55592143494414
 31
0.0
  0
LINE
  5
4FC8
330
2387
100
AcDbEntity
  8
AM_5
100
AcDbLine
 10
198.5546866124687
 20
214.5559214349445
 30
0.0
 11
198.5546866124687
 21
98.55592143494414
 31
0.0
  0
LINE
  5
4FC9
330
2387
100
AcDbEntity
  8
AM_5
100
AcDbLine
 10
383.5546866124687
 20
100.5559214349441
 30
0.0
 11
203.5546866124687
 21
100.5559214349441
 31
0.0
  0
SOLID
  5
4FCA
330
2387
100
AcDbEntity
  8
AM_5
100
AcDbTrace
 10
383.5546866124687
 20
101.3892547682774
 30
0.0
 11
383.5546866124687
 21
99.72258810161081
 31
0.0
 12
388.5546866124687
 22
100.5559214349441
 32
0.0
 13
388.5546866124687
 23
100.5559214349441
 33
0.0
  0
SOLID
  5
4FCB
330
2387
100
AcDbEntity
  8
AM_5
100
AcDbTrace
 10
203.5546866124687
 20
101.3892547682774
 30
0.0
 11
203.5546866124687
 21
99.72258810161081
 31
0.0
 12
198.5546866124687
 22
100.5559214349441
 32
0.0
 13
198.5546866124687
 23
100.5559214349441
 33
0.0
  0
MTEXT
  5
4FCC
330
2387
100
AcDbEntity
  8
AM_5
 62
     2
100
AcDbMText
 10
293.5546866124687
 20
107.0559214349441
 30
0.0
 40
7.0
 41
0.0
 71
     5
 72
     1
  1
190
 73
     1
 44
1.0
1001
ACAD
1000
MTEXTBEGIN
1070
    73
1070
     1
1070
    44
1040
1.0
1070
    74
1070
     0
1000
MTEXTEND
  0
POINT
  5
4FCD
330
2387
100
AcDbEntity
  8
Defpoints
 62
     0
100
AcDbPoint
 10
388.5546866124687
 20
181.5559214349445
 30
0.0
  0
POINT
  5
4FCE
330
2387
100
AcDbEntity
  8
Defpoints
 62
     0
100
AcDbPoint
 10
198.5546866124687
 20
216.5559214349445
 30
0.0
  0
POINT
  5
4FCF
330
2387
100
AcDbEntity
  8
Defpoints
 62
     0
100
AcDbPoint
 10
198.5546866124687
 20
100.5559214349441
 30
0.0
  0
ENDBLK
  5
2392
330
2387
100
AcDbEntity
  8
0
100
AcDbBlockEnd
  0
BLOCK
  5
239D
330
2393
100
AcDbEntity
  8
0
100
AcDbBlockBegin
  2
*D10
 70
     1
 10
0.0
 20
0.0
 30
0.0
  3
*D10
  1

  0
LINE
  5
4FD0
330
2393
100
AcDbEntity
  8
AM_5
100
AcDbLine
 10
138.5546866124687
 20
182.5559214349445
 30
0.0
 11
138.5546866124687
 21
78.55592143494504
 31
0.0
  0
LINE
  5
4FD1
330
2393
100
AcDbEntity
  8
AM_5
100
AcDbLine
 10
638.5546866124687
 20
182.5559214349445
 30
0.0
 11
638.5546866124687
 21
78.55592143494504
 31
0.0
  0
LINE
  5
4FD2
330
2393
100
AcDbEntity
  8
AM_5
100
AcDbLine
 10
143.5546866124687
 20
80.55592143494505
 30
0.0
 11
633.5546866124687
 21
80.55592143494505
 31
0.0
  0
SOLID
  5
4FD3
330
2393
100
AcDbEntity
  8
AM_5
100
AcDbTrace
 10
143.5546866124687
 20
81.38925476827838
 30
0.0
 11
143.5546866124687
 21
79.72258810161171
 31
0.0
 12
138.5546866124687
 22
80.55592143494505
 32
0.0
 13
138.5546866124687
 23
80.55592143494505
 33
0.0
  0
SOLID
  5
4FD4
330
2393
100
AcDbEntity
  8
AM_5
100
AcDbTrace
 10
633.5546866124687
 20
81.38925476827838
 30
0.0
 11
633.5546866124687
 21
79.72258810161171
 31
0.0
 12
638.5546866124687
 22
80.55592143494505
 32
0.0
 13
638.5546866124687
 23
80.55592143494505
 33
0.0
  0
MTEXT
  5
4FD5
330
2393
100
AcDbEntity
  8
AM_5
 62
     2
100
AcDbMText
 10
388.5546866124687
 20
87.05592143494504
 30
0.0
 40
7.0
 41
0.0
 71
     5
 72
     1
  1
500
 73
     1
 44
1.0
1001
ACAD
1000
MTEXTBEGIN
1070
    73
1070
     1
1070
    44
1040
1.0
1070
    74
1070
     0
1000
MTEXTEND
  0
POINT
  5
4FD6
330
2393
100
AcDbEntity
  8
Defpoints
 62
     0
100
AcDbPoint
 10
138.5546866124687
 20
184.5559214349444
 30
0.0
  0
POINT
  5
4FD7
330
2393
100
AcDbEntity
  8
Defpoints
 62
     0
100
AcDbPoint
 10
638.5546866124687
 20
184.5559214349444
 30
0.0
  0
POINT
  5
4FD8
330
2393
100
AcDbEntity
  8
Defpoints
 62
     0
100
AcDbPoint
 10
638.5546866124687
 20
80.55592143494505
 30
0.0
  0
ENDBLK
  5
239E
330
2393
100
AcDbEntity
  8
0
100
AcDbBlockEnd
  0
BLOCK
  5
23A9
330
239F
100
AcDbEntity
  8
0
100
AcDbBlockBegin
  2
*D11
 70
     1
 10
0.0
 20
0.0
 30
0.0
  3
*D11
  1

  0
LINE
  5
4FD9
330
239F
100
AcDbEntity
  8
AM_5
100
AcDbLine
 10
328.5546866124687
 20
222.5559214349445
 30
0.0
 11
328.5546866124687
 21
158.5559214349446
 31
0.0
  0
LINE
  5
4FDA
330
239F
100
AcDbEntity
  8
AM_5
100
AcDbLine
 10
388.5546866124687
 20
182.5559214349445
 30
0.0
 11
388.5546866124687
 21
158.5559214349446
 31
0.0
  0
LINE
  5
4FDB
330
239F
100
AcDbEntity
  8
AM_5
100
AcDbLine
 10
333.5546866124687
 20
160.5559214349446
 30
0.0
 11
383.5546866124687
 21
160.5559214349446
 31
0.0
  0
SOLID
  5
4FDC
330
239F
100
AcDbEntity
  8
AM_5
100
AcDbTrace
 10
333.5546866124687
 20
161.3892547682779
 30
0.0
 11
333.5546866124687
 21
159.7225881016112
 31
0.0
 12
328.5546866124687
 22
160.5559214349446
 32
0.0
 13
328.5546866124687
 23
160.5559214349446
 33
0.0
  0
SOLID
  5
4FDD
330
239F
100
AcDbEntity
  8
AM_5
100
AcDbTrace
 10
383.5546866124687
 20
161.3892547682779
 30
0.0
 11
383.5546866124687
 21
159.7225881016112
 31
0.0
 12
388.5546866124687
 22
160.5559214349446
 32
0.0
 13
388.5546866124687
 23
160.5559214349446
 33
0.0
  0
MTEXT
  5
4FDE
330
239F
100
AcDbEntity
  8
AM_5
 62
     2
100
AcDbMText
 10
358.5546866124687
 20
167.0559214349446
 30
0.0
 40
7.0
 41
0.0
 71
     5
 72
     1
  1
60
 73
     1
 44
1.0
1001
ACAD
1000
MTEXTBEGIN
1070
    73
1070
     1
1070
    44
1040
1.0
1070
    74
1070
     0
1000
MTEXTEND
  0
POINT
  5
4FDF
330
239F
100
AcDbEntity
  8
Defpoints
 62
     0
100
AcDbPoint
 10
328.5546866124687
 20
224.5559214349445
 30
0.0
  0
POINT
  5
4FE0
330
239F
100
AcDbEntity
  8
Defpoints
 62
     0
100
AcDbPoint
 10
388.5546866124687
 20
184.5559214349444
 30
0.0
  0
POINT
  5
4FE1
330
239F
100
AcDbEntity
  8
Defpoints
 62
     0
100
AcDbPoint
 10
388.5546866124687
 20
160.5559214349446
 30
0.0
  0
ENDBLK
  5
23AA
330
239F
100
AcDbEntity
  8
0
100
AcDbBlockEnd
  0
BLOCK
  5
23BB
330
23B4
100
AcDbEntity
  8
0
100
AcDbBlockBegin
  2
*D12
 70
     1
 10
0.0
 20
0.0
 30
0.0
  3
*D12
  1

  0
LINE
  5
4FA6
330
23B4
100
AcDbEntity
  8
AM_5
100
AcDbLine
 10
447.4498241249238
 20
266.6338570464014
 30
0.0
 11
452.5171103342028
 21
273.5142854236802
 31
0.0
  0
LINE
  5
4FA7
330
23B4
100
AcDbEntity
  8
AM_5
100
AcDbLine
 10
452.5171103342028
 20
273.5142854236802
 30
0.0
 11
467.4226221452264
 21
273.5142854236802
 31
0.0
  0
SOLID
  5
4FA8
330
23B4
100
AcDbEntity
  8
AM_5
100
AcDbTrace
 10
446.7788277020651
 20
267.128031352649
 30
0.0
 11
448.1208205477826
 21
266.1396827401539
 31
0.0
 12
444.4847782874386
 22
262.6078785092491
 32
0.0
 13
444.4847782874386
 23
262.6078785092491
 33
0.0
  0
MTEXT
  5
4FA9
330
23B4
100
AcDbEntity
  8
AM_5
 62
     2
100
AcDbMText
 10
461.4698662397146
 20
280.0142854236802
 30
0.0
 40
7.0
 41
0.0
 71
     5
 72
     1
  1
R10
 73
     1
 44
1.0
1001
ACAD
1000
MTEXTBEGIN
1070
    73
1070
     1
1070
    44
1040
1.0
1070
    74
1070
     0
1000
MTEXTEND
  0
POINT
  5
4FAA
330
23B4
100
AcDbEntity
  8
Defpoints
 62
     0
100
AcDbPoint
 10
444.4847782874386
 20
262.6078785092491
 30
0.0
  0
POINT
  5
4FAB
330
23B4
100
AcDbEntity
  8
Defpoints
 62
     0
100
AcDbPoint
 10
438.5546866124684
 20
254.5559214349445
 30
0.0
  0
ENDBLK
  5
23BC
330
23B4
100
AcDbEntity
  8
0
100
AcDbBlockEnd
  0
BLOCK
  5
23C7
330
23BD
100
AcDbEntity
  8
0
100
AcDbBlockBegin
  2
*D13
 70
     1
 10
0.0
 20
0.0
 30
0.0
  3
*D13
  1

  0
LINE
  5
4F9D
330
23BD
100
AcDbEntity
  8
AM_5
100
AcDbLine
 10
440.5546866124686
 20
264.5559214349445
 30
0.0
 11
474.5546866124686
 21
264.5559214349445
 31
0.0
  0
LINE
  5
4F9E
330
23BD
100
AcDbEntity
  8
AM_5
100
AcDbLine
 10
440.5546866124686
 20
214.5559214349445
 30
0.0
 11
474.5546866124686
 21
214.5559214349444
 31
0.0
  0
LINE
  5
4F9F
330
23BD
100
AcDbEntity
  8
AM_5
100
AcDbLine
 10
472.5546866124687
 20
259.5559214349445
 30
0.0
 11
472.5546866124687
 21
219.5559214349445
 31
0.0
  0
SOLID
  5
4FA0
330
23BD
100
AcDbEntity
  8
AM_5
100
AcDbTrace
 10
471.7213532791354
 20
259.5559214349445
 30
0.0
 11
473.3880199458019
 21
259.5559214349445
 31
0.0
 12
472.5546866124687
 22
264.5559214349445
 32
0.0
 13
472.5546866124687
 23
264.5559214349445
 33
0.0
  0
SOLID
  5
4FA1
330
23BD
100
AcDbEntity
  8
AM_5
100
AcDbTrace
 10
471.7213532791354
 20
219.5559214349445
 30
0.0
 11
473.3880199458019
 21
219.5559214349445
 31
0.0
 12
472.5546866124687
 22
214.5559214349444
 32
0.0
 13
472.5546866124687
 23
214.5559214349444
 33
0.0
  0
MTEXT
  5
4FA2
330
23BD
100
AcDbEntity
  8
AM_5
 62
     2
100
AcDbMText
 10
466.0546866124686
 20
239.5559214349446
 30
0.0
 40
7.0
 41
0.0
 71
     5
 72
     1
  1
50
 11
0.0000000000000001
 21
1.0
 31
0.0
 73
     1
 44
1.0
1001
ACAD
1000
MTEXTBEGIN
1070
    73
1070
     1
1070
    44
1040
1.0
1070
    74
1070
     0
1000
MTEXTEND
  0
POINT
  5
4FA3
330
23BD
100
AcDbEntity
  8
Defpoints
 62
     0
100
AcDbPoint
 10
438.5546866124687
 20
264.5559214349445
 30
0.0
  0
POINT
  5
4FA4
330
23BD
100
AcDbEntity
  8
Defpoints
 62
     0
100
AcDbPoint
 10
438.5546866124687
 20
214.5559214349445
 30
0.0
  0
POINT
  5
4FA5
330
23BD
100
AcDbEntity
  8
Defpoints
 62
     0
100
AcDbPoint
 10
472.5546866124687
 20
214.5559214349444
 30
0.0
  0
ENDBLK
  5
23C8
330
23BD
100
AcDbEntity
  8
0
100
AcDbBlockEnd
  0
BLOCK
  5
23D3
330
23C9
100
AcDbEntity
  8
0
100
AcDbBlockBegin
  2
*D14
 70
     1
 10
0.0
 20
0.0
 30
0.0
  3
*D14
  1

  0
LINE
  5
4FAC
330
23C9
100
AcDbEntity
  8
AM_5
100
AcDbLine
 10
640.5546866124686
 20
184.5559214349444
 30
0.0
 11
664.5546866124686
 21
184.5559214349444
 31
0.0
  0
LINE
  5
4FAD
330
23C9
100
AcDbEntity
  8
AM_5
100
AcDbLine
 10
640.5546866124686
 20
299.5559214349444
 30
0.0
 11
664.5546866124687
 21
299.5559214349444
 31
0.0
  0
LINE
  5
4FAE
330
23C9
100
AcDbEntity
  8
AM_5
100
AcDbLine
 10
662.5546866124685
 20
189.5559214349445
 30
0.0
 11
662.5546866124686
 21
294.5559214349444
 31
0.0
  0
SOLID
  5
4FAF
330
23C9
100
AcDbEntity
  8
AM_5
100
AcDbTrace
 10
661.7213532791351
 20
189.5559214349445
 30
0.0
 11
663.3880199458019
 21
189.5559214349445
 31
0.0
 12
662.5546866124685
 22
184.5559214349444
 32
0.0
 13
662.5546866124685
 23
184.5559214349444
 33
0.0
  0
SOLID
  5
4FB0
330
23C9
100
AcDbEntity
  8
AM_5
100
AcDbTrace
 10
661.7213532791353
 20
294.5559214349444
 30
0.0
 11
663.388019945802
 21
294.5559214349444
 31
0.0
 12
662.5546866124686
 22
299.5559214349444
 32
0.0
 13
662.5546866124686
 23
299.5559214349444
 33
0.0
  0
MTEXT
  5
4FB1
330
23C9
100
AcDbEntity
  8
AM_5
 62
     2
100
AcDbMText
 10
656.0546866124686
 20
242.0559214349446
 30
0.0
 40
7.0
 41
0.0
 71
     5
 72
     1
  1
115
 11
0.0000000000000001
 21
1.0
 31
0.0
 73
     1
 44
1.0
1001
ACAD
1000
MTEXTBEGIN
1070
    73
1070
     1
1070
    44
1040
1.0
1070
    74
1070
     0
1000
MTEXTEND
  0
POINT
  5
4FB2
330
23C9
100
AcDbEntity
  8
Defpoints
 62
     0
100
AcDbPoint
 10
638.5546866124687
 20
184.5559214349444
 30
0.0
  0
POINT
  5
4FB3
330
23C9
100
AcDbEntity
  8
Defpoints
 62
     0
100
AcDbPoint
 10
638.5546866124687
 20
299.5559214349445
 30
0.0
  0
POINT
  5
4FB4
330
23C9
100
AcDbEntity
  8
Defpoints
 62
     0
100
AcDbPoint
 10
662.5546866124686
 20
299.5559214349444
 30
0.0
  0
ENDBLK
  5
23D4
330
23C9
100
AcDbEntity
  8
0
100
AcDbBlockEnd
  0
BLOCK
  5
23DF
330
23D5
100
AcDbEntity
  8
0
100
AcDbBlockBegin
  2
*D15
 70
     1
 10
0.0
 20
0.0
 30
0.0
  3
*D15
  1

  0
LINE
  5
4F8B
330
23D5
100
AcDbEntity
  8
AM_5
100
AcDbLine
 10
363.5546866124687
 20
366.5559214349445
 30
0.0
 11
363.5546866124687
 21
418.5559214349444
 31
0.0
  0
LINE
  5
4F8C
330
23D5
100
AcDbEntity
  8
AM_5
100
AcDbLine
 10
413.5546866124687
 20
366.5559214349445
 30
0.0
 11
413.5546866124687
 21
418.5559214349444
 31
0.0
  0
LINE
  5
4F8D
330
23D5
100
AcDbEntity
  8
AM_5
100
AcDbLine
 10
368.5546866124687
 20
416.5559214349444
 30
0.0
 11
408.5546866124686
 21
416.5559214349444
 31
0.0
  0
SOLID
  5
4F8E
330
23D5
100
AcDbEntity
  8
AM_5
100
AcDbTrace
 10
368.5546866124687
 20
417.3892547682777
 30
0.0
 11
368.5546866124687
 21
415.7225881016112
 31
0.0
 12
363.5546866124687
 22
416.5559214349444
 32
0.0
 13
363.5546866124687
 23
416.5559214349444
 33
0.0
  0
SOLID
  5
4F8F
330
23D5
100
AcDbEntity
  8
AM_5
100
AcDbTrace
 10
408.5546866124686
 20
417.3892547682777
 30
0.0
 11
408.5546866124686
 21
415.7225881016112
 31
0.0
 12
413.5546866124687
 22
416.5559214349444
 32
0.0
 13
413.5546866124687
 23
416.5559214349444
 33
0.0
  0
MTEXT
  5
4F90
330
23D5
100
AcDbEntity
  8
AM_5
 62
     2
100
AcDbMText
 10
388.5546866124687
 20
423.0559214349445
 30
0.0
 40
7.0
 41
0.0
 71
     5
 72
     1
  1
50
 73
     1
 44
1.0
1001
ACAD
1000
MTEXTBEGIN
1070
    73
1070
     1
1070
    44
1040
1.0
1070
    74
1070
     0
1000
MTEXTEND
  0
POINT
  5
4F91
330
23D5
100
AcDbEntity
  8
Defpoints
 62
     0
100
AcDbPoint
 10
363.5546866124687
 20
364.5559214349445
 30
0.0
  0
POINT
  5
4F92
330
23D5
100
AcDbEntity
  8
Defpoints
 62
     0
100
AcDbPoint
 10
413.5546866124687
 20
364.5559214349445
 30
0.0
  0
POINT
  5
4F93
330
23D5
100
AcDbEntity
  8
Defpoints
 62
     0
100
AcDbPoint
 10
413.5546866124687
 20
416.5559214349444
 30
0.0
  0
ENDBLK
  5
23E0
330
23D5
100
AcDbEntity
  8
0
100
AcDbBlockEnd
  0
BLOCK
  5
23EB
330
23E1
100
AcDbEntity
  8
0
100
AcDbBlockBegin
  2
*D16
 70
     1
 10
0.0
 20
0.0
 30
0.0
  3
*D16
  1

  0
LINE
  5
4F94
330
23E1
100
AcDbEntity
  8
AM_5
100
AcDbLine
 10
388.5546866124687
 20
369.5559214349445
 30
0.0
 11
388.5546866124687
 21
398.5559214349445
 31
0.0
  0
LINE
  5
4F95
330
23E1
100
AcDbEntity
  8
AM_5
100
AcDbLine
 10
363.5546866124687
 20
369.5559214349442
 30
0.0
 11
363.5546866124687
 21
398.5559214349445
 31
0.0
  0
LINE
  5
4F96
330
23E1
100
AcDbEntity
  8
AM_5
100
AcDbLine
 10
383.5546866124687
 20
396.5559214349445
 30
0.0
 11
368.5546866124687
 21
396.5559214349445
 31
0.0
  0
SOLID
  5
4F97
330
23E1
100
AcDbEntity
  8
AM_5
100
AcDbTrace
 10
383.5546866124687
 20
397.3892547682778
 30
0.0
 11
383.5546866124687
 21
395.7225881016112
 31
0.0
 12
388.5546866124687
 22
396.5559214349445
 32
0.0
 13
388.5546866124687
 23
396.5559214349445
 33
0.0
  0
SOLID
  5
4F98
330
23E1
100
AcDbEntity
  8
AM_5
100
AcDbTrace
 10
368.5546866124687
 20
397.3892547682778
 30
0.0
 11
368.5546866124687
 21
395.7225881016112
 31
0.0
 12
363.5546866124687
 22
396.5559214349445
 32
0.0
 13
363.5546866124687
 23
396.5559214349445
 33
0.0
  0
MTEXT
  5
4F99
330
23E1
100
AcDbEntity
  8
AM_5
 62
     2
100
AcDbMText
 10
376.0546866124687
 20
403.0566104113224
 30
0.0
 40
7.0
 41
0.0
 71
     5
 72
     1
  1
25
 73
     1
 44
1.0
1001
ACAD
1000
MTEXTBEGIN
1070
    73
1070
     1
1070
    44
1040
1.0
1070
    74
1070
     0
1000
MTEXTEND
  0
POINT
  5
4F9A
330
23E1
100
AcDbEntity
  8
Defpoints
 62
     0
100
AcDbPoint
 10
388.5546866124687
 20
367.5559214349445
 30
0.0
  0
POINT
  5
4F9B
330
23E1
100
AcDbEntity
  8
Defpoints
 62
     0
100
AcDbPoint
 10
363.5546866124687
 20
367.5559214349442
 30
0.0
  0
POINT
  5
4F9C
330
23E1
100
AcDbEntity
  8
Defpoints
 62
     0
100
AcDbPoint
 10
363.5546866124687
 20
396.5559214349445
 30
0.0
  0
ENDBLK
  5
23EC
330
23E1
100
AcDbEntity
  8
0
100
AcDbBlockEnd
  0
BLOCK
  5
23F9
330
23ED
100
AcDbEntity
  8
0
100
AcDbBlockBegin
  2
*D17
 70
     1
 10
0.0
 20
0.0
 30
0.0
  3
*D17
  1

  0
LINE
  5
6EE4
330
23ED
100
AcDbEntity
  8
AM_5
100
AcDbLine
 10
354.5546866124679
 20
359.5559214349445
 30
0.0
 11
316.7697175000669
 21
359.5559214349445
 31
0.0
  0
LINE
  5
6EE5
330
23ED
100
AcDbEntity
  8
AM_5
100
AcDbLine
 10
411.5546866124686
 20
364.5559214349445
 30
0.0
 11
316.7697175000669
 21
364.5559214349445
 31
0.0
  0
LINE
  5
6EE6
330
23ED
100
AcDbEntity
  8
AM_5
100
AcDbLine
 10
318.7697175000669
 20
369.5559214349446
 30
0.0
 11
318.7697175000669
 21
374.5559214349445
 31
0.0
  0
LINE
  5
6EE7
330
23ED
100
AcDbEntity
  8
AM_5
100
AcDbLine
 10
318.7697175000669
 20
354.5559214349445
 30
0.0
 11
318.7697175000669
 21
340.4659719412833
 31
0.0
  0
LINE
  5
6EE8
330
23ED
100
AcDbEntity
  8
AM_5
100
AcDbLine
 10
318.7697175000669
 20
364.5559214349445
 30
0.0
 11
318.7697175000669
 21
359.5559214349445
 31
0.0
  0
SOLID
  5
6EE9
330
23ED
100
AcDbEntity
  8
AM_5
100
AcDbTrace
 10
317.9363841667336
 20
369.5559214349446
 30
0.0
 11
319.6030508334002
 21
369.5559214349446
 31
0.0
 12
318.7697175000669
 22
364.5559214349445
 32
0.0
 13
318.7697175000669
 23
364.5559214349445
 33
0.0
  0
SOLID
  5
6EEA
330
23ED
100
AcDbEntity
  8
AM_5
100
AcDbTrace
 10
317.9363841667336
 20
354.5559214349445
 30
0.0
 11
319.6030508334002
 21
354.5559214349445
 31
0.0
 12
318.7697175000669
 22
359.5559214349445
 32
0.0
 13
318.7697175000669
 23
359.5559214349445
 33
0.0
  0
MTEXT
  5
6EEB
330
23ED
100
AcDbEntity
  8
AM_5
 62
     2
100
AcDbMText
 10
312.2697175000669
 20
345.010946688114
 30
0.0
 40
7.0
 41
0.0
 71
     5
 72
     1
  1
5
 11
0.0000000000000001
 21
1.0
 31
0.0
 73
     1
 44
1.0
1001
ACAD
1000
MTEXTBEGIN
1070
    73
1070
     1
1070
    44
1040
1.0
1070
    74
1070
     0
1000
MTEXTEND
  0
POINT
  5
6EEC
330
23ED
100
AcDbEntity
  8
Defpoints
 62
     0
100
AcDbPoint
 10
356.5546866124679
 20
359.5559214349445
 30
0.0
  0
POINT
  5
6EED
330
23ED
100
AcDbEntity
  8
Defpoints
 62
     0
100
AcDbPoint
 10
413.5546866124687
 20
364.5559214349445
 30
0.0
  0
POINT
  5
6EEE
330
23ED
100
AcDbEntity
  8
Defpoints
 62
     0
100
AcDbPoint
 10
318.7697175000669
 20
364.5559214349445
 30
0.0
  0
ENDBLK
  5
23FA
330
23ED
100
AcDbEntity
  8
0
100
AcDbBlockEnd
  0
BLOCK
  5
2405
330
23FB
100
AcDbEntity
  8
0
100
AcDbBlockBegin
  2
*D18
 70
     1
 10
0.0
 20
0.0
 30
0.0
  3
*D18
  1

  0
LINE
  5
6CE3
330
23FB
100
AcDbEntity
  8
AM_5
100
AcDbLine
 10
356.5546873999863
 20
357.5559217793353
 30
0.0
 11
356.5546873999863
 21
310.6631317706432
 31
0.0
  0
LINE
  5
6CE4
330
23FB
100
AcDbEntity
  8
AM_5
100
AcDbLine
 10
388.5546866124687
 20
336.8286580885532
 30
0.0
 11
388.5546866124687
 21
310.6631317706432
 31
0.0
  0
LINE
  5
6CE5
330
23FB
100
AcDbEntity
  8
AM_5
100
AcDbLine
 10
361.5546873999863
 20
312.6631317706432
 30
0.0
 11
383.5546866124687
 21
312.6631317706432
 31
0.0
  0
SOLID
  5
6CE6
330
23FB
100
AcDbEntity
  8
AM_5
100
AcDbTrace
 10
361.5546873999863
 20
313.4964651039765
 30
0.0
 11
361.5546873999863
 21
311.8297984373099
 31
0.0
 12
356.5546873999863
 22
312.6631317706432
 32
0.0
 13
356.5546873999863
 23
312.6631317706432
 33
0.0
  0
SOLID
  5
6CE7
330
23FB
100
AcDbEntity
  8
AM_5
100
AcDbTrace
 10
383.5546866124687
 20
313.4964651039765
 30
0.0
 11
383.5546866124687
 21
311.8297984373099
 31
0.0
 12
388.5546866124687
 22
312.6631317706432
 32
0.0
 13
388.5546866124687
 23
312.6631317706432
 33
0.0
  0
MTEXT
  5
6CE8
330
23FB
100
AcDbEntity
  8
AM_5
 62
     2
100
AcDbMText
 10
372.5546870062275
 20
319.1638207470211
 30
0.0
 40
7.0
 41
0.0
 71
     5
 72
     1
  1
32
 73
     1
 44
1.0
1001
ACAD
1000
MTEXTBEGIN
1070
    73
1070
     1
1070
    44
1040
1.0
1070
    74
1070
     0
1000
MTEXTEND
  0
POINT
  5
6CE9
330
23FB
100
AcDbEntity
  8
Defpoints
 62
     0
100
AcDbPoint
 10
356.5546873999863
 20
359.5559217793353
 30
0.0
  0
POINT
  5
6CEA
330
23FB
100
AcDbEntity
  8
Defpoints
 62
     0
100
AcDbPoint
 10
388.5546866124687
 20
338.8286580885532
 30
0.0
  0
POINT
  5
6CEB
330
23FB
100
AcDbEntity
  8
Defpoints
 62
     0
100
AcDbPoint
 10
388.5546866124687
 20
312.6631317706432
 30
0.0
  0
ENDBLK
  5
2406
330
23FB
100
AcDbEntity
  8
0
100
AcDbBlockEnd
  0
BLOCK
  5
24EF
330
24E5
100
AcDbEntity
  8
0
100
AcDbBlockBegin
  2
*D19
 70
     1
 10
0.0
 20
0.0
 30
0.0
  3
*D19
  1

  0
LINE
  5
6E84
330
24E5
100
AcDbEntity
  8
AM_5
100
AcDbLine
 10
138.5546866124687
 20
431.5559214349445
 30
0.0
 11
138.5546866124687
 21
455.5559214349445
 31
0.0
  0
LINE
  5
6E85
330
24E5
100
AcDbEntity
  8
AM_5
100
AcDbLine
 10
317.5546878821354
 20
386.5559214349445
 30
0.0
 11
317.5546878821354
 21
455.5559214349445
 31
0.0
  0
LINE
  5
6E86
330
24E5
100
AcDbEntity
  8
AM_5
100
AcDbLine
 10
143.5546866124687
 20
453.5559214349445
 30
0.0
 11
312.5546878821353
 21
453.5559214349445
 31
0.0
  0
SOLID
  5
6E87
330
24E5
100
AcDbEntity
  8
AM_5
100
AcDbTrace
 10
143.5546866124687
 20
454.3892547682778
 30
0.0
 11
143.5546866124687
 21
452.7225881016112
 31
0.0
 12
138.5546866124687
 22
453.5559214349445
 32
0.0
 13
138.5546866124687
 23
453.5559214349445
 33
0.0
  0
SOLID
  5
6E88
330
24E5
100
AcDbEntity
  8
AM_5
100
AcDbTrace
 10
312.5546878821353
 20
454.3892547682778
 30
0.0
 11
312.5546878821353
 21
452.7225881016112
 31
0.0
 12
317.5546878821354
 22
453.5559214349445
 32
0.0
 13
317.5546878821354
 23
453.5559214349445
 33
0.0
  0
MTEXT
  5
6E89
330
24E5
100
AcDbEntity
  8
AM_5
 62
     2
100
AcDbMText
 10
228.054687247302
 20
460.0559214349445
 30
0.0
 40
7.0
 41
0.0
 71
     5
 72
     1
  1
179
 73
     1
 44
1.0
1001
ACAD
1000
MTEXTBEGIN
1070
    73
1070
     1
1070
    44
1040
1.0
1070
    74
1070
     0
1000
MTEXTEND
  0
POINT
  5
6E8A
330
24E5
100
AcDbEntity
  8
Defpoints
 62
     0
100
AcDbPoint
 10
138.5546866124687
 20
429.5559214349444
 30
0.0
  0
POINT
  5
6E8B
330
24E5
100
AcDbEntity
  8
Defpoints
 62
     0
100
AcDbPoint
 10
317.5546878821354
 20
384.5559214349445
 30
0.0
  0
POINT
  5
6E8C
330
24E5
100
AcDbEntity
  8
Defpoints
 62
     0
100
AcDbPoint
 10
317.5546878821354
 20
453.5559214349445
 30
0.0
  0
ENDBLK
  5
24F0
330
24E5
100
AcDbEntity
  8
0
100
AcDbBlockEnd
  0
BLOCK
  5
2530
330
2526
100
AcDbEntity
  8
0
100
AcDbBlockBegin
  2
*D20
 70
     1
 10
0.0
 20
0.0
 30
0.0
  3
*D20
  1

  0
LINE
  5
4F65
330
2526
100
AcDbEntity
  8
AM_5
100
AcDbLine
 10
136.5546866124687
 20
184.5559214349444
 30
0.0
 11
12.55468661246816
 21
184.5559214349445
 31
0.0
  0
LINE
  5
4F66
330
2526
100
AcDbEntity
  8
AM_5
100
AcDbLine
 10
136.5546866124687
 20
429.5559214349444
 30
0.0
 11
12.55468661246821
 21
429.5559214349445
 31
0.0
  0
LINE
  5
4F67
330
2526
100
AcDbEntity
  8
AM_5
100
AcDbLine
 10
14.55468661246815
 20
189.5559214349445
 30
0.0
 11
14.5546866124682
 21
424.5559214349445
 31
0.0
  0
SOLID
  5
4F68
330
2526
100
AcDbEntity
  8
AM_5
100
AcDbTrace
 10
13.72135327913482
 20
189.5559214349445
 30
0.0
 11
15.38801994580149
 21
189.5559214349445
 31
0.0
 12
14.55468661246815
 22
184.5559214349445
 32
0.0
 13
14.55468661246815
 23
184.5559214349445
 33
0.0
  0
SOLID
  5
4F69
330
2526
100
AcDbEntity
  8
AM_5
100
AcDbTrace
 10
13.72135327913487
 20
424.5559214349445
 30
0.0
 11
15.38801994580154
 21
424.5559214349445
 31
0.0
 12
14.5546866124682
 22
429.5559214349445
 32
0.0
 13
14.5546866124682
 23
429.5559214349445
 33
0.0
  0
MTEXT
  5
4F6A
330
2526
100
AcDbEntity
  8
AM_5
 62
     2
100
AcDbMText
 10
8.053997636090178
 20
307.0559214349446
 30
0.0
 40
7.0
 41
0.0
 71
     5
 72
     1
  1
245
 11
0.0000000000000001
 21
1.0
 31
0.0
 73
     1
 44
1.0
1001
ACAD
1000
MTEXTBEGIN
1070
    73
1070
     1
1070
    44
1040
1.0
1070
    74
1070
     0
1000
MTEXTEND
  0
POINT
  5
4F6B
330
2526
100
AcDbEntity
  8
Defpoints
 62
     0
100
AcDbPoint
 10
138.5546866124687
 20
184.5559214349444
 30
0.0
  0
POINT
  5
4F6C
330
2526
100
AcDbEntity
  8
Defpoints
 62
     0
100
AcDbPoint
 10
138.5546866124687
 20
429.5559214349444
 30
0.0
  0
POINT
  5
4F6D
330
2526
100
AcDbEntity
  8
Defpoints
 62
     0
100
AcDbPoint
 10
14.5546866124682
 20
429.5559214349445
 30
0.0
  0
ENDBLK
  5
2531
330
2526
100
AcDbEntity
  8
0
100
AcDbBlockEnd
  0
BLOCK
  5
2571
330
2567
100
AcDbEntity
  8
0
100
AcDbBlockBegin
  2
*D21
 70
     1
 10
0.0
 20
0.0
 30
0.0
  3
*D21
  1

  0
LINE
  5
6E8D
330
2567
100
AcDbEntity
  8
AM_5
100
AcDbLine
 10
136.5546866124687
 20
184.5559214349444
 30
0.0
 11
32.55468661246816
 21
184.5559214349445
 31
0.0
  0
LINE
  5
6E8E
330
2567
100
AcDbEntity
  8
AM_5
100
AcDbLine
 10
315.5546878821354
 20
384.5559214349445
 30
0.0
 11
32.5546866124682
 21
384.5559214349446
 31
0.0
  0
LINE
  5
6E8F
330
2567
100
AcDbEntity
  8
AM_5
100
AcDbLine
 10
34.55468661246816
 20
189.5559214349445
 30
0.0
 11
34.55468661246821
 21
379.5559214349446
 31
0.0
  0
SOLID
  5
6E90
330
2567
100
AcDbEntity
  8
AM_5
100
AcDbTrace
 10
33.72135327913483
 20
189.5559214349445
 30
0.0
 11
35.3880199458015
 21
189.5559214349445
 31
0.0
 12
34.55468661246816
 22
184.5559214349445
 32
0.0
 13
34.55468661246816
 23
184.5559214349445
 33
0.0
  0
SOLID
  5
6E91
330
2567
100
AcDbEntity
  8
AM_5
100
AcDbTrace
 10
33.72135327913487
 20
379.5559214349446
 30
0.0
 11
35.38801994580154
 21
379.5559214349446
 31
0.0
 12
34.55468661246821
 22
384.5559214349446
 32
0.0
 13
34.55468661246821
 23
384.5559214349446
 33
0.0
  0
MTEXT
  5
6E92
330
2567
100
AcDbEntity
  8
AM_5
 62
     2
100
AcDbMText
 10
28.05399763609019
 20
284.5559214349446
 30
0.0
 40
7.0
 41
0.0
 71
     5
 72
     1
  1
200
 11
0.0000000000000001
 21
1.0
 31
0.0
 73
     1
 44
1.0
1001
ACAD
1000
MTEXTBEGIN
1070
    73
1070
     1
1070
    44
1040
1.0
1070
    74
1070
     0
1000
MTEXTEND
  0
POINT
  5
6E93
330
2567
100
AcDbEntity
  8
Defpoints
 62
     0
100
AcDbPoint
 10
138.5546866124687
 20
184.5559214349444
 30
0.0
  0
POINT
  5
6E94
330
2567
100
AcDbEntity
  8
Defpoints
 62
     0
100
AcDbPoint
 10
317.5546878821354
 20
384.5559214349445
 30
0.0
  0
POINT
  5
6E95
330
2567
100
AcDbEntity
  8
Defpoints
 62
     0
100
AcDbPoint
 10
34.55468661246821
 20
384.5559214349446
 30
0.0
  0
ENDBLK
  5
2572
330
2567
100
AcDbEntity
  8
0
100
AcDbBlockEnd
  0
BLOCK
  5
25C2
330
25BC
100
AcDbEntity
  8
0
100
AcDbBlockBegin
  2
*D22
 70
     1
 10
0.0
 20
0.0
 30
0.0
  3
*D22
  1

  0
LINE
  5
6A4F
330
25BC
100
AcDbEntity
  8
AM_5
100
AcDbLine
 10
571.5905768776417
 20
231.7323533897037
 30
0.0
 11
561.8975984094761
 21
241.7208520010718
 31
0.0
  0
LINE
  5
6A50
330
25BC
100
AcDbEntity
  8
AM_5
100
AcDbLine
 10
561.8975984094761
 20
241.7208520010718
 30
0.0
 11
546.2920865984524
 21
241.7208520010718
 31
0.0
  0
SOLID
  5
6A51
330
25BC
100
AcDbEntity
  8
AM_5
100
AcDbTrace
 10
572.1886128738716
 20
232.3126958676059
 30
0.0
 11
570.9925408814117
 21
231.1520109118013
 31
0.0
 12
575.0726317450552
 22
228.1441374123241
 32
0.0
 13
575.0726317450552
 23
228.1441374123241
 33
0.0
  0
MTEXT
  5
6A52
330
25BC
100
AcDbEntity
  8
AM_5
 62
     2
100
AcDbMText
 10
552.5948425039642
 20
248.2208520010717
 30
0.0
 40
7.0
 41
0.0
 71
     5
 72
     1
  1
\U+220510
 73
     1
 44
1.0
1001
ACAD
1000
MTEXTBEGIN
1070
    73
1070
     1
1070
    44
1040
1.0
1070
    74
1070
     0
1000
MTEXTEND
  0
POINT
  5
6A53
330
25BC
100
AcDbEntity
  8
Defpoints
 62
     0
100
AcDbPoint
 10
575.0726317450552
 20
228.1441374123241
 30
0.0
  0
POINT
  5
6A54
330
25BC
100
AcDbEntity
  8
Defpoints
 62
     0
100
AcDbPoint
 10
582.0367414798822
 20
220.9677054575652
 30
0.0
  0
ENDBLK
  5
25C3
330
25BC
100
AcDbEntity
  8
0
100
AcDbBlockEnd
  0
BLOCK
  5
4D06
330
4CFA
100
AcDbEntity
  8
0
100
AcDbBlockBegin
  2
*D23
 70
     1
 10
0.0
 20
0.0
 30
0.0
  3
*D23
  1

  0
LINE
  5
6CD8
330
4CFA
100
AcDbEntity
  8
AM_5
100
AcDbLine
 10
356.5546873999863
 20
357.5559217793353
 30
0.0
 11
356.5546873999863
 21
310.6631317706538
 31
0.0
  0
LINE
  5
6CD9
330
4CFA
100
AcDbEntity
  8
AM_5
100
AcDbLine
 10
352.5546878450451
 20
357.5559214614361
 30
0.0
 11
352.5546878450451
 21
310.6631317706538
 31
0.0
  0
LINE
  5
6CDA
330
4CFA
100
AcDbEntity
  8
AM_5
100
AcDbLine
 10
361.5546873999863
 20
312.6631317706538
 30
0.0
 11
366.5546873999863
 21
312.6631317706538
 31
0.0
  0
LINE
  5
6CDB
330
4CFA
100
AcDbEntity
  8
AM_5
100
AcDbLine
 10
347.5546878450451
 20
312.6631317706538
 30
0.0
 11
333.0546878450451
 21
312.6631317706538
 31
0.0
  0
LINE
  5
6CDC
330
4CFA
100
AcDbEntity
  8
AM_5
100
AcDbLine
 10
356.5546873999863
 20
312.6631317706538
 30
0.0
 11
352.5546878450451
 21
312.6631317706538
 31
0.0
  0
SOLID
  5
6CDD
330
4CFA
100
AcDbEntity
  8
AM_5
100
AcDbTrace
 10
361.5546873999863
 20
313.4964651039871
 30
0.0
 11
361.5546873999863
 21
311.8297984373204
 31
0.0
 12
356.5546873999863
 22
312.6631317706538
 32
0.0
 13
356.5546873999863
 23
312.6631317706538
 33
0.0
  0
SOLID
  5
6CDE
330
4CFA
100
AcDbEntity
  8
AM_5
100
AcDbTrace
 10
347.5546878450451
 20
313.4964651039871
 30
0.0
 11
347.5546878450451
 21
311.8297984373204
 31
0.0
 12
352.5546878450451
 22
312.6631317706538
 32
0.0
 13
352.5546878450451
 23
312.6631317706538
 33
0.0
  0
MTEXT
  5
6CDF
330
4CFA
100
AcDbEntity
  8
AM_5
 62
     2
100
AcDbMText
 10
337.8046878450451
 20
319.1631317706538
 30
0.0
 40
7.0
 41
0.0
 71
     5
 72
     1
  1
4
 73
     1
 44
1.0
1001
ACAD
1000
MTEXTBEGIN
1070
    73
1070
     1
1070
    44
1040
1.0
1070
    74
1070
     0
1000
MTEXTEND
  0
POINT
  5
6CE0
330
4CFA
100
AcDbEntity
  8
Defpoints
 62
     0
100
AcDbPoint
 10
356.5546873999863
 20
359.5559217793353
 30
0.0
  0
POINT
  5
6CE1
330
4CFA
100
AcDbEntity
  8
Defpoints
 62
     0
100
AcDbPoint
 10
352.5546878450451
 20
359.5559214614362
 30
0.0
  0
POINT
  5
6CE2
330
4CFA
100
AcDbEntity
  8
Defpoints
 62
     0
100
AcDbPoint
 10
352.5546878450451
 20
312.6631317706538
 30
0.0
  0
ENDBLK
  5
4D07
330
4CFA
100
AcDbEntity
  8
0
100
AcDbBlockEnd
  0
BLOCK
  5
6D08
330
6CFC
100
AcDbEntity
  8
0
100
AcDbBlockBegin
  2
*D24
 70
     1
 10
0.0
 20
0.0
 30
0.0
  3
*D24
  1

  0
LINE
  5
6E9F
330
6CFC
100
AcDbEntity
  8
AM_5
100
AcDbLine
 10
363.5546873999863
 20
366.5559217793354
 30
0.0
 11
363.5546873999863
 21
398.5559214349444
 31
0.0
  0
LINE
  5
6EA0
330
6CFC
100
AcDbEntity
  8
AM_5
100
AcDbLine
 10
356.5546873999863
 20
361.5559217793353
 30
0.0
 11
356.5546873999863
 21
398.5559214349444
 31
0.0
  0
LINE
  5
6EA1
330
6CFC
100
AcDbEntity
  8
AM_5
100
AcDbLine
 10
368.5546873999863
 20
396.5559214349444
 30
0.0
 11
373.5546873999863
 21
396.5559214349444
 31
0.0
  0
LINE
  5
6EA2
330
6CFC
100
AcDbEntity
  8
AM_5
100
AcDbLine
 10
351.5546873999863
 20
396.5559214349444
 30
0.0
 11
337.7546873999863
 21
396.5559214349444
 31
0.0
  0
LINE
  5
6EA3
330
6CFC
100
AcDbEntity
  8
AM_5
100
AcDbLine
 10
363.5546873999863
 20
396.5559214349444
 30
0.0
 11
356.5546873999863
 21
396.5559214349444
 31
0.0
  0
SOLID
  5
6EA4
330
6CFC
100
AcDbEntity
  8
AM_5
100
AcDbTrace
 10
368.5546873999863
 20
397.3892547682778
 30
0.0
 11
368.5546873999863
 21
395.7225881016111
 31
0.0
 12
363.5546873999863
 22
396.5559214349444
 32
0.0
 13
363.5546873999863
 23
396.5559214349444
 33
0.0
  0
SOLID
  5
6EA5
330
6CFC
100
AcDbEntity
  8
AM_5
100
AcDbTrace
 10
351.5546873999863
 20
397.3892547682778
 30
0.0
 11
351.5546873999863
 21
395.7225881016111
 31
0.0
 12
356.5546873999863
 22
396.5559214349444
 32
0.0
 13
356.5546873999863
 23
396.5559214349444
 33
0.0
  0
MTEXT
  5
6EA6
330
6CFC
100
AcDbEntity
  8
AM_5
 62
     2
100
AcDbMText
 10
342.1546873999863
 20
403.0559214349444
 30
0.0
 40
7.0
 41
0.0
 71
     5
 72
     1
  1
7
 73
     1
 44
1.0
1001
ACAD
1000
MTEXTBEGIN
1070
    73
1070
     1
1070
    44
1040
1.0
1070
    74
1070
     0
1000
MTEXTEND
  0
POINT
  5
6EA7
330
6CFC
100
AcDbEntity
  8
Defpoints
 62
     0
100
AcDbPoint
 10
363.5546873999863
 20
364.5559217793354
 30
0.0
  0
POINT
  5
6EA8
330
6CFC
100
AcDbEntity
  8
Defpoints
 62
     0
100
AcDbPoint
 10
356.5546873999863
 20
359.5559217793353
 30
0.0
  0
POINT
  5
6EA9
330
6CFC
100
AcDbEntity
  8
Defpoints
 62
     0
100
AcDbPoint
 10
356.5546873999863
 20
396.5559214349444
 30
0.0
  0
ENDBLK
  5
6D09
330
6CFC
100
AcDbEntity
  8
0
100
AcDbBlockEnd
  0
BLOCK
  5
6DD4
330
6DCA
100
AcDbEntity
  8
0
100
AcDbBlockBegin
  2
*D25
 70
     1
 10
0.0
 20
0.0
 30
0.0
  3
*D25
  1

  0
LINE
  5
6E96
330
6DCA
100
AcDbEntity
  8
AM_5
100
AcDbLine
 10
136.5546866124687
 20
429.5559214349444
 30
0.0
 11
32.55468661246819
 21
429.5559214349445
 31
0.0
  0
LINE
  5
6E97
330
6DCA
100
AcDbEntity
  8
AM_5
100
AcDbLine
 10
315.5546878821354
 20
384.5559214349445
 30
0.0
 11
32.5546866124682
 21
384.5559214349446
 31
0.0
  0
LINE
  5
6E98
330
6DCA
100
AcDbEntity
  8
AM_5
100
AcDbLine
 10
34.5546866124682
 20
424.5559214349445
 30
0.0
 11
34.55468661246819
 21
389.5559214349445
 31
0.0
  0
SOLID
  5
6E99
330
6DCA
100
AcDbEntity
  8
AM_5
100
AcDbTrace
 10
33.72135327913486
 20
424.5559214349445
 30
0.0
 11
35.38801994580153
 21
424.5559214349445
 31
0.0
 12
34.5546866124682
 22
429.5559214349445
 32
0.0
 13
34.5546866124682
 23
429.5559214349445
 33
0.0
  0
SOLID
  5
6E9A
330
6DCA
100
AcDbEntity
  8
AM_5
100
AcDbTrace
 10
33.72135327913485
 20
389.5559214349445
 30
0.0
 11
35.38801994580153
 21
389.5559214349445
 31
0.0
 12
34.55468661246819
 22
384.5559214349446
 32
0.0
 13
34.55468661246819
 23
384.5559214349446
 33
0.0
  0
MTEXT
  5
6E9B
330
6DCA
100
AcDbEntity
  8
AM_5
 62
     2
100
AcDbMText
 10
28.05468661246813
 20
407.0559214349445
 30
0.0
 40
7.0
 41
0.0
 71
     5
 72
     1
  1
45
 11
0.0000000000000001
 21
1.0
 31
0.0
 73
     1
 44
1.0
1001
ACAD
1000
MTEXTBEGIN
1070
    73
1070
     1
1070
    44
1040
1.0
1070
    74
1070
     0
1000
MTEXTEND
  0
POINT
  5
6E9C
330
6DCA
100
AcDbEntity
  8
Defpoints
 62
     0
100
AcDbPoint
 10
138.5546866124687
 20
429.5559214349444
 30
0.0
  0
POINT
  5
6E9D
330
6DCA
100
AcDbEntity
  8
Defpoints
 62
     0
100
AcDbPoint
 10
317.5546878821354
 20
384.5559214349445
 30
0.0
  0
POINT
  5
6E9E
330
6DCA
100
AcDbEntity
  8
Defpoints
 62
     0
100
AcDbPoint
 10
34.55468661246819
 20
384.5559214349446
 30
0.0
  0
ENDBLK
  5
6DD5
330
6DCA
100
AcDbEntity
  8
0
100
AcDbBlockEnd
  0
BLOCK
  5
6E04
330
6DFA
100
AcDbEntity
  8
0
100
AcDbBlockBegin
  2
*D26
 70
     1
 10
0.0
 20
0.0
 30
0.0
  3
*D26
  1

  0
LINE
  5
6E08
330
6DFA
100
AcDbEntity
  8
AM_5
100
AcDbLine
 10
429.5546878821331
 20
354.5559214349445
 30
0.0
 11
664.5546866124689
 21
354.5559214349444
 31
0.0
  0
LINE
  5
6E09
330
6DFA
100
AcDbEntity
  8
AM_5
100
AcDbLine
 10
640.5546866124686
 20
299.5559214349444
 30
0.0
 11
664.5546866124689
 21
299.5559214349444
 31
0.0
  0
LINE
  5
6E0A
330
6DFA
100
AcDbEntity
  8
AM_5
100
AcDbLine
 10
662.5546866124689
 20
349.5559214349444
 30
0.0
 11
662.5546866124689
 21
304.5559214349444
 31
0.0
  0
SOLID
  5
6E0B
330
6DFA
100
AcDbEntity
  8
AM_5
100
AcDbTrace
 10
661.7213532791355
 20
349.5559214349444
 30
0.0
 11
663.3880199458022
 21
349.5559214349444
 31
0.0
 12
662.5546866124689
 22
354.5559214349444
 32
0.0
 13
662.5546866124689
 23
354.5559214349444
 33
0.0
  0
SOLID
  5
6E0C
330
6DFA
100
AcDbEntity
  8
AM_5
100
AcDbTrace
 10
661.7213532791355
 20
304.5559214349444
 30
0.0
 11
663.3880199458022
 21
304.5559214349444
 31
0.0
 12
662.5546866124689
 22
299.5559214349444
 32
0.0
 13
662.5546866124689
 23
299.5559214349444
 33
0.0
  0
MTEXT
  5
6E0D
330
6DFA
100
AcDbEntity
  8
AM_5
 62
     2
100
AcDbMText
 10
656.0546866124687
 20
327.0559214349445
 30
0.0
 40
7.0
 41
0.0
 71
     5
 72
     1
  1
55
 11
0.0000000000000001
 21
1.0
 31
0.0
 73
     1
 44
1.0
1001
ACAD
1000
MTEXTBEGIN
1070
    73
1070
     1
1070
    44
1040
1.0
1070
    74
1070
     0
1000
MTEXTEND
  0
POINT
  5
6E0E
330
6DFA
100
AcDbEntity
  8
Defpoints
 62
     0
100
AcDbPoint
 10
427.554687882133
 20
354.5559214349445
 30
0.0
  0
POINT
  5
6E0F
330
6DFA
100
AcDbEntity
  8
Defpoints
 62
     0
100
AcDbPoint
 10
638.5546866124687
 20
299.5559214349445
 30
0.0
  0
POINT
  5
6E10
330
6DFA
100
AcDbEntity
  8
Defpoints
 62
     0
100
AcDbPoint
 10
662.5546866124689
 20
299.5559214349444
 30
0.0
  0
ENDBLK
  5
6E05
330
6DFA
100
AcDbEntity
  8
0
100
AcDbBlockEnd
  0
BLOCK
  5
6E2A
330
6E20
100
AcDbEntity
  8
0
100
AcDbBlockBegin
  2
*D27
 70
     1
 10
0.0
 20
0.0
 30
0.0
  3
*D27
  1

  0
LINE
  5
6E2E
330
6E20
100
AcDbEntity
  8
AM_5
100
AcDbLine
 10
638.5546873999863
 20
301.5559212296674
 30
0.0
 11
638.5546873999863
 21
419.1160628317748
 31
0.0
  0
LINE
  5
6E2F
330
6E20
100
AcDbEntity
  8
AM_5
100
AcDbLine
 10
427.554687882133
 20
356.5559214349445
 30
0.0
 11
427.554687882133
 21
419.1160628317748
 31
0.0
  0
LINE
  5
6E30
330
6E20
100
AcDbEntity
  8
AM_5
100
AcDbLine
 10
633.5546873999862
 20
417.1160628317748
 30
0.0
 11
432.554687882133
 21
417.1160628317748
 31
0.0
  0
SOLID
  5
6E31
330
6E20
100
AcDbEntity
  8
AM_5
100
AcDbTrace
 10
633.5546873999862
 20
417.9493961651081
 30
0.0
 11
633.5546873999862
 21
416.2827294984414
 31
0.0
 12
638.5546873999863
 22
417.1160628317748
 32
0.0
 13
638.5546873999863
 23
417.1160628317748
 33
0.0
  0
SOLID
  5
6E32
330
6E20
100
AcDbEntity
  8
AM_5
100
AcDbTrace
 10
432.554687882133
 20
417.9493961651081
 30
0.0
 11
432.554687882133
 21
416.2827294984414
 31
0.0
 12
427.554687882133
 22
417.1160628317748
 32
0.0
 13
427.554687882133
 23
417.1160628317748
 33
0.0
  0
MTEXT
  5
6E33
330
6E20
100
AcDbEntity
  8
AM_5
 62
     2
100
AcDbMText
 10
533.0546876410596
 20
423.6167518081527
 30
0.0
 40
7.0
 41
0.0
 71
     5
 72
     1
  1
211
 73
     1
 44
1.0
1001
ACAD
1000
MTEXTBEGIN
1070
    73
1070
     1
1070
    44
1040
1.0
1070
    74
1070
     0
1000
MTEXTEND
  0
POINT
  5
6E34
330
6E20
100
AcDbEntity
  8
Defpoints
 62
     0
100
AcDbPoint
 10
638.5546873999863
 20
299.5559212296674
 30
0.0
  0
POINT
  5
6E35
330
6E20
100
AcDbEntity
  8
Defpoints
 62
     0
100
AcDbPoint
 10
427.554687882133
 20
354.5559214349445
 30
0.0
  0
POINT
  5
6E36
330
6E20
100
AcDbEntity
  8
Defpoints
 62
     0
100
AcDbPoint
 10
427.554687882133
 20
417.1160628317748
 30
0.0
  0
ENDBLK
  5
6E2B
330
6E20
100
AcDbEntity
  8
0
100
AcDbBlockEnd
  0
BLOCK
  5
6F0B
330
6EFF
100
AcDbEntity
  8
0
100
AcDbBlockBegin
  2
*D28
 70
     1
 10
0.0
 20
0.0
 30
0.0
  3
*D28
  1

  0
LINE
  5
6F0F
330
6EFF
100
AcDbEntity
  8
AM_5
100
AcDbLine
 10
415.5546866124686
 20
364.5559214349445
 30
0.0
 11
463.7115901059996
 21
364.5559214349445
 31
0.0
  0
LINE
  5
6F10
330
6EFF
100
AcDbEntity
  8
AM_5
100
AcDbLine
 10
439.7115901059996
 20
372.5559214349445
 30
0.0
 11
463.7115901059996
 21
372.5559214349445
 31
0.0
  0
LINE
  5
6F11
330
6EFF
100
AcDbEntity
  8
AM_5
100
AcDbLine
 10
461.7115901059996
 20
359.5559214349445
 30
0.0
 11
461.7115901059996
 21
354.5559214349445
 31
0.0
  0
LINE
  5
6F12
330
6EFF
100
AcDbEntity
  8
AM_5
100
AcDbLine
 10
461.7115901059996
 20
377.5559214349445
 30
0.0
 11
461.7115901059997
 21
391.3559214349445
 31
0.0
  0
LINE
  5
6F13
330
6EFF
100
AcDbEntity
  8
AM_5
100
AcDbLine
 10
461.7115901059996
 20
364.5559214349445
 30
0.0
 11
461.7115901059996
 21
372.5559214349445
 31
0.0
  0
SOLID
  5
6F14
330
6EFF
100
AcDbEntity
  8
AM_5
100
AcDbTrace
 10
460.8782567726663
 20
359.5559214349445
 30
0.0
 11
462.544923439333
 21
359.5559214349445
 31
0.0
 12
461.7115901059996
 22
364.5559214349445
 32
0.0
 13
461.7115901059996
 23
364.5559214349445
 33
0.0
  0
SOLID
  5
6F15
330
6EFF
100
AcDbEntity
  8
AM_5
100
AcDbTrace
 10
460.8782567726663
 20
377.5559214349445
 30
0.0
 11
462.544923439333
 21
377.5559214349445
 31
0.0
 12
461.7115901059996
 22
372.5559214349445
 32
0.0
 13
461.7115901059996
 23
372.5559214349445
 33
0.0
  0
MTEXT
  5
6F16
330
6EFF
100
AcDbEntity
  8
AM_5
 62
     2
100
AcDbMText
 10
455.2115901059996
 20
386.9559214349446
 30
0.0
 40
7.0
 41
0.0
 71
     5
 72
     1
  1
8
 11
0.0000000000000001
 21
1.0
 31
0.0
 73
     1
 44
1.0
1001
ACAD
1000
MTEXTBEGIN
1070
    73
1070
     1
1070
    44
1040
1.0
1070
    74
1070
     0
1000
MTEXTEND
  0
POINT
  5
6F17
330
6EFF
100
AcDbEntity
  8
Defpoints
 62
     0
100
AcDbPoint
 10
413.5546866124687
 20
364.5559214349445
 30
0.0
  0
POINT
  5
6F18
330
6EFF
100
AcDbEntity
  8
Defpoints
 62
     0
100
AcDbPoint
 10
437.7115901059997
 20
372.5559214349445
 30
0.0
  0
POINT
  5
6F19
330
6EFF
100
AcDbEntity
  8
Defpoints
 62
     0
100
AcDbPoint
 10
461.7115901059996
 20
372.5559214349445
 30
0.0
  0
ENDBLK
  5
6F0C
330
6EFF
100
AcDbEntity
  8
0
100
AcDbBlockEnd
  0
BLOCK
  5
6F4C
330
6F47
100
AcDbEntity
  8
0
100
AcDbBlockBegin
  2
*S29
 70
     1
 10
0.0
 20
0.0
 30
0.0
  3
*S29
  1

  0
LINE
  5
6F48
330
6F47
100
AcDbEntity
  8
AM_5
100
AcDbLine
 10
544.0800147535749
 20
397.7153558903623
 30
0.0
 11
440.2055265645985
 21
397.7153558903623
 31
0.0
  0
LINE
  5
6F49
330
6F47
100
AcDbEntity
  8
AM_5
100
AcDbLine
 10
440.2055265645985
 20
397.7153558903623
 30
0.0
 11
431.2588285781106
 21
378.8789418492803
 31
0.0
  0
TRACE
  5
6F4A
330
6F47
100
AcDbEntity
  8
AM_5
100
AcDbTrace
 10
430.4263871519814
 20
379.2743250689726
 30
0.0
 11
432.0912700042399
 21
378.483558629588
 31
0.0
 12
428.2555948476308
 22
372.5559214349445
 32
0.0
 13
428.2555948476308
 23
372.5559214349445
 33
0.0
  0
MTEXT
  5
6F4B
330
6F47
100
AcDbEntity
  8
AM_5
 62
     2
100
AcDbMText
 10
447.2055265645986
 20
401.2153558903622
 30
0.0
 40
7.0
 41
0.0
 71
     7
 72
     5
  1
Schienenoberkante (SO)
  7
ACDINTS
 73
     1
 44
1.0
1001
ACAD
1000
MTEXTBEGIN
1070
    73
1070
     1
1070
    44
1040
1.0
1070
    74
1070
     0
1000
MTEXTEND
  0
ENDBLK
  5
6F4D
330
6F47
100
AcDbEntity
  8
0
100
AcDbBlockEnd
  0
ENDSEC
  0
SECTION
  2
ENTITIES
  0
LWPOLYLINE
  5
4E0
102
{ACAD_REACTORS
330
24FB
330
253C
330
257D
330
4D14
330
6DD7
330
6E07
330
6E2D
330
6F0E
102
}
330
1F
100
AcDbEntity
  8
0
100
AcDbPolyline
 90
       10
 70
     1
 43
0.0
 10
638.5546866124687
 20
299.5559214349445
 10
427.554687882133
 20
354.5559214349445
 10
413.5546866124687
 20
364.5559214349445
 10
363.5546866124687
 20
364.5559214349445
 10
356.5546873999863
 20
359.5559217793353
 10
352.5546878450451
 20
359.5559214614362
 10
317.5546878821354
 20
384.5559214349445
 10
138.5546866124687
 20
429.5559214349444
 10
138.5546866124687
 20
184.5559214349444
 10
638.5546866124687
 20
184.5559214349444
  0
LINE
  5
4ED
330
1F
100
AcDbEntity
  8
AM_7
100
AcDbLine
 10
388.5546866124687
 20
387.1219223069102
 30
0.0
 11
388.5546866124687
 21
181.5559214349445
 31
0.0
1001
GENIUS_GENODEF_13
1002
{
1000
HIER
1070
     0
1002
}
1002
{
1000
MANEDIT
1070
     0
1002
}
1002
{
1000
NOSEL
1070
     0
1002
}
1002
{
1000
BEHIND
1070
     0
1002
}
1002
{
1000
OTHER
1070
     0
1002
}
1002
{
1000
REACTOR
1002
}
1001
GENIUS_GENOBJ-N-CEN_13
1002
{
1000
OWNER
1000
GEN
1002
}
  0
LINE
  5
6D9
330
1F
100
AcDbEntity
  8
AM_7
  6
AM_DIN_G_W050x2
100
AcDbLine
 10
268.5546866124687
 20
315.5559214349445
 30
0.0
 11
276.5546866124687
 21
315.5559214349445
 31
0.0
1001
GENIUS_GENOREF_13
1005
6F8
  0
LINE
  5
6DA
330
1F
100
AcDbEntity
  8
AM_7
  6
AM_DIN_G_W050x2
100
AcDbLine
 10
268.5546866124687
 20
315.5559214349445
 30
0.0
 11
268.5546866124687
 21
323.5559214349445
 31
0.0
1001
GENIUS_GENOREF_13
1005
6F8
  0
LINE
  5
6DB
330
1F
100
AcDbEntity
  8
AM_7
  6
AM_DIN_G_W050x2
100
AcDbLine
 10
268.5546866124687
 20
315.5559214349445
 30
0.0
 11
260.5546866124687
 21
315.5559214349445
 31
0.0
1001
GENIUS_GENOREF_13
1005
6F8
  0
LINE
  5
6DC
330
1F
100
AcDbEntity
  8
AM_7
  6
AM_DIN_G_W050x2
100
AcDbLine
 10
268.5546866124687
 20
315.5559214349445
 30
0.0
 11
268.5546866124687
 21
307.5559214349445
 31
0.0
1001
GENIUS_GENOREF_13
1005
6F8
  0
CIRCLE
  5
6DD
330
1F
100
AcDbEntity
  8
0
100
AcDbCircle
 10
268.5546866124687
 20
315.5559214349445
 30
0.0
 40
5.0
  0
LINE
  5
6DE
330
1F
100
AcDbEntity
  8
AM_7
  6
AM_DIN_G_W050x2
100
AcDbLine
 10
288.5546866124687
 20
294.5559214349445
 30
0.0
 11
296.5546866124687
 21
294.5559214349445
 31
0.0
1001
GENIUS_GENOREF_13
1005
6F9
  0
LINE
  5
6DF
330
1F
100
AcDbEntity
  8
AM_7
  6
AM_DIN_G_W050x2
100
AcDbLine
 10
288.5546866124687
 20
294.5559214349445
 30
0.0
 11
288.5546866124687
 21
302.5559214349445
 31
0.0
1001
GENIUS_GENOREF_13
1005
6F9
  0
LINE
  5
6E0
330
1F
100
AcDbEntity
  8
AM_7
  6
AM_DIN_G_W050x2
100
AcDbLine
 10
288.5546866124687
 20
294.5559214349445
 30
0.0
 11
280.5546866124687
 21
294.5559214349445
 31
0.0
1001
GENIUS_GENOREF_13
1005
6F9
  0
LINE
  5
6E1
330
1F
100
AcDbEntity
  8
AM_7
  6
AM_DIN_G_W050x2
100
AcDbLine
 10
288.5546866124687
 20
294.5559214349445
 30
0.0
 11
288.5546866124687
 21
286.5559214349445
 31
0.0
1001
GENIUS_GENOREF_13
1005
6F9
  0
CIRCLE
  5
6E2
330
1F
100
AcDbEntity
  8
0
100
AcDbCircle
 10
288.5546866124687
 20
294.5559214349445
 30
0.0
 40
5.0
  0
LINE
  5
6E3
330
1F
100
AcDbEntity
  8
AM_7
  6
AM_DIN_G_W050x2
100
AcDbLine
 10
198.5546866124687
 20
224.5559214349445
 30
0.0
 11
206.5546866124687
 21
224.5559214349445
 31
0.0
1001
GENIUS_GENOREF_13
1005
6FA
  0
LINE
  5
6E4
330
1F
100
AcDbEntity
  8
AM_7
  6
AM_DIN_G_W050x2
100
AcDbLine
 10
198.5546866124687
 20
224.5559214349445
 30
0.0
 11
198.5546866124687
 21
232.5559214349445
 31
0.0
1001
GENIUS_GENOREF_13
1005
6FA
  0
LINE
  5
6E5
330
1F
100
AcDbEntity
  8
AM_7
  6
AM_DIN_G_W050x2
100
AcDbLine
 10
198.5546866124687
 20
224.5559214349445
 30
0.0
 11
190.5546866124686
 21
224.5559214349445
 31
0.0
1001
GENIUS_GENOREF_13
1005
6FA
  0
LINE
  5
6E6
330
1F
100
AcDbEntity
  8
AM_7
  6
AM_DIN_G_W050x2
100
AcDbLine
 10
198.5546866124687
 20
224.5559214349445
 30
0.0
 11
198.5546866124687
 21
216.5559214349445
 31
0.0
1001
GENIUS_GENOREF_13
1005
6FA
  0
CIRCLE
  5
6E7
330
1F
100
AcDbEntity
  8
0
100
AcDbCircle
 10
198.5546866124687
 20
224.5559214349445
 30
0.0
 40
5.0
  0
CIRCLE
  5
6E8
330
1F
100
AcDbEntity
  8
0
100
AcDbCircle
 10
488.5546866124687
 20
294.5559214349445
 30
0.0
 40
5.0
  0
LINE
  5
6E9
330
1F
100
AcDbEntity
  8
AM_7
  6
AM_DIN_G_W050x2
100
AcDbLine
 10
488.5546866124687
 20
294.5559214349445
 30
0.0
 11
488.5546866124687
 21
286.5559214349445
 31
0.0
1001
GENIUS_GENOREF_13
1005
6FC
  0
LINE
  5
6EA
330
1F
100
AcDbEntity
  8
AM_7
  6
AM_DIN_G_W050x2
100
AcDbLine
 10
488.5546866124687
 20
294.5559214349445
 30
0.0
 11
496.5546866124687
 21
294.5559214349445
 31
0.0
1001
GENIUS_GENOREF_13
1005
6FC
  0
LINE
  5
6EB
330
1F
100
AcDbEntity
  8
AM_7
  6
AM_DIN_G_W050x2
100
AcDbLine
 10
488.5546866124687
 20
294.5559214349445
 30
0.0
 11
488.5546866124687
 21
302.5559214349445
 31
0.0
1001
GENIUS_GENOREF_13
1005
6FC
  0
LINE
  5
6EC
330
1F
100
AcDbEntity
  8
AM_7
  6
AM_DIN_G_W050x2
100
AcDbLine
 10
488.5546866124687
 20
294.5559214349445
 30
0.0
 11
480.5546866124687
 21
294.5559214349445
 31
0.0
1001
GENIUS_GENOREF_13
1005
6FC
  0
CIRCLE
  5
6ED
330
1F
100
AcDbEntity
  8
0
100
AcDbCircle
 10
508.5546866124686
 20
315.5559214349445
 30
0.0
 40
5.0
  0
LINE
  5
6EE
330
1F
100
AcDbEntity
  8
AM_7
  6
AM_DIN_G_W050x2
100
AcDbLine
 10
508.5546866124686
 20
315.5559214349445
 30
0.0
 11
508.5546866124686
 21
307.5559214349445
 31
0.0
1001
GENIUS_GENOREF_13
1005
6FD
  0
LINE
  5
6EF
330
1F
100
AcDbEntity
  8
AM_7
  6
AM_DIN_G_W050x2
100
AcDbLine
 10
508.5546866124686
 20
315.5559214349445
 30
0.0
 11
516.5546866124686
 21
315.5559214349445
 31
0.0
1001
GENIUS_GENOREF_13
1005
6FD
  0
LINE
  5
6F0
330
1F
100
AcDbEntity
  8
AM_7
  6
AM_DIN_G_W050x2
100
AcDbLine
 10
508.5546866124686
 20
315.5559214349445
 30
0.0
 11
508.5546866124686
 21
323.5559214349445
 31
0.0
1001
GENIUS_GENOREF_13
1005
6FD
  0
LINE
  5
6F1
330
1F
100
AcDbEntity
  8
AM_7
  6
AM_DIN_G_W050x2
100
AcDbLine
 10
508.5546866124686
 20
315.5559214349445
 30
0.0
 11
500.5546866124687
 21
315.5559214349445
 31
0.0
1001
GENIUS_GENOREF_13
1005
6FD
  0
CIRCLE
  5
6F2
102
{ACAD_REACTORS
330
25CA
102
}
330
1F
100
AcDbEntity
  8
0
100
AcDbCircle
 10
578.5546866124686
 20
224.5559214349445
 30
0.0
 40
5.0
  0
LINE
  5
6F3
330
1F
100
AcDbEntity
  8
AM_7
  6
AM_DIN_G_W050x2
100
AcDbLine
 10
578.5546866124686
 20
224.5559214349445
 30
0.0
 11
578.5546866124686
 21
216.5559214349445
 31
0.0
1001
GENIUS_GENOREF_13
1005
6FB
  0
LINE
  5
6F4
330
1F
100
AcDbEntity
  8
AM_7
  6
AM_DIN_G_W050x2
100
AcDbLine
 10
578.5546866124686
 20
224.5559214349445
 30
0.0
 11
586.5546866124686
 21
224.5559214349445
 31
0.0
1001
GENIUS_GENOREF_13
1005
6FB
  0
LINE
  5
6F5
330
1F
100
AcDbEntity
  8
AM_7
  6
AM_DIN_G_W050x2
100
AcDbLine
 10
578.5546866124686
 20
224.5559214349445
 30
0.0
 11
578.5546866124686
 21
232.5559214349445
 31
0.0
1001
GENIUS_GENOREF_13
1005
6FB
  0
LINE
  5
6F6
330
1F
100
AcDbEntity
  8
AM_7
  6
AM_DIN_G_W050x2
100
AcDbLine
 10
578.5546866124686
 20
224.5559214349445
 30
0.0
 11
570.5546866124686
 21
224.5559214349445
 31
0.0
1001
GENIUS_GENOREF_13
1005
6FB
  0
LINE
  5
6F7
102
{ACAD_REACTORS
330
6F0E
102
}
330
1F
100
AcDbEntity
  8
AM_7
100
AcDbLine
 10
339.3977831189377
 20
372.5559214349445
 30
0.0
 11
437.7115901059997
 21
372.5559214349445
 31
0.0
1001
GENIUS_GENOBJ-N-CEN_13
1002
{
1000
OWNER
1000
GEN
1002
}
1001
GENIUS_GENODEF_13
1002
{
1000
HIER
1070
     0
1002
}
1002
{
1000
MANEDIT
1070
     0
1002
}
1002
{
1000
NOSEL
1070
     0
1002
}
1002
{
1000
BEHIND
1070
     0
1002
}
1002
{
1000
OTHER
1070
     0
1002
}
1002
{
1000
REACTOR
1002
}
  0
POINT
  5
6F8
330
1F
100
AcDbEntity
  8
0
 60
     1
100
AcDbPoint
 10
-0.0000000000002274
 20
-60.20919011601725
 30
0.0
1001
GENIUS_GENODEF_13
1002
{
1000
HIER
1070
    10
1002
}
1002
{
1000
MANEDIT
1070
     0
1002
}
1002
{
1000
NOSEL
1070
     0
1002
}
1002
{
1000
BEHIND
1070
     0
1002
}
1002
{
1000
OTHER
1070
     0
1002
}
1002
{
1000
REACTOR
1002
}
1001
GENIUS_GENOLIS_13
1002
{
1000
ENT
1005
6DC
1005
6DB
1005
6DA
1005
6D9
1002
}
1001
GENIUS_GENOENT_13
1002
{
1000
MYREF
1005
6F8
1002
}
1002
{
1000
GRP
1005
0
1002
}
1001
GENIUS_GENOBJ-N-CRS_13
1002
{
1000
OWNER
1000
GEN
1002
}
  0
POINT
  5
6F9
330
1F
100
AcDbEntity
  8
0
 60
     1
100
AcDbPoint
 10
-0.0000000000002274
 20
-60.20919011601725
 30
0.0
1001
GENIUS_GENOLIS_13
1002
{
1000
ENT
1005
6E1
1005
6E0
1005
6DF
1005
6DE
1002
}
1001
GENIUS_GENOENT_13
1002
{
1000
MYREF
1005
6F9
1002
}
1002
{
1000
GRP
1005
0
1002
}
1001
GENIUS_GENOBJ-N-CRS_13
1002
{
1000
OWNER
1000
GEN
1002
}
1001
GENIUS_GENODEF_13
1002
{
1000
HIER
1070
    10
1002
}
1002
{
1000
MANEDIT
1070
     0
1002
}
1002
{
1000
NOSEL
1070
     0
1002
}
1002
{
1000
BEHIND
1070
     0
1002
}
1002
{
1000
OTHER
1070
     0
1002
}
1002
{
1000
REACTOR
1002
}
  0
POINT
  5
6FA
330
1F
100
AcDbEntity
  8
0
 60
     1
100
AcDbPoint
 10
-0.0000000000002274
 20
-60.20919011601725
 30
0.0
1001
GENIUS_GENOBJ-N-CRS_13
1002
{
1000
OWNER
1000
GEN
1002
}
1001
GENIUS_GENODEF_13
1002
{
1000
HIER
1070
    10
1002
}
1002
{
1000
MANEDIT
1070
     0
1002
}
1002
{
1000
NOSEL
1070
     0
1002
}
1002
{
1000
BEHIND
1070
     0
1002
}
1002
{
1000
OTHER
1070
     0
1002
}
1002
{
1000
REACTOR
1002
}
1001
GENIUS_GENOLIS_13
1002
{
1000
ENT
1005
6E6
1005
6E5
1005
6E4
1005
6E3
1002
}
1001
GENIUS_GENOENT_13
1002
{
1000
MYREF
1005
6FA
1002
}
1002
{
1000
GRP
1005
0
1002
}
  0
POINT
  5
6FB
330
1F
100
AcDbEntity
  8
0
 60
     1
100
AcDbPoint
 10
911.1451858560259
 20
-60.20919011601725
 30
0.0
1001
GENIUS_GENOBJ-N-CRS_13
1002
{
1000
OWNER
1000
GEN
1002
}
1001
GENIUS_GENODEF_13
1002
{
1000
HIER
1070
    10
1002
}
1002
{
1000
MANEDIT
1070
     0
1002
}
1002
{
1000
NOSEL
1070
     0
1002
}
1002
{
1000
BEHIND
1070
     0
1002
}
1002
{
1000
OTHER
1070
     0
1002
}
1002
{
1000
REACTOR
1002
}
1001
GENIUS_GENOLIS_13
1002
{
1000
ENT
1005
6F3
1005
6F4
1005
6F5
1005
6F6
1002
}
1001
GENIUS_GENOENT_13
1002
{
1000
MYREF
1005
6FB
1002
}
1002
{
1000
GRP
1005
0
1002
}
  0
POINT
  5
6FC
330
1F
100
AcDbEntity
  8
0
 60
     1
100
AcDbPoint
 10
911.1451858560259
 20
-60.20919011601725
 30
0.0
1001
GENIUS_GENOLIS_13
1002
{
1000
ENT
1005
6E9
1005
6EA
1005
6EB
1005
6EC
1002
}
1001
GENIUS_GENOENT_13
1002
{
1000
MYREF
1005
6FC
1002
}
1002
{
1000
GRP
1005
0
1002
}
1001
GENIUS_GENOBJ-N-CRS_13
1002
{
1000
OWNER
1000
GEN
1002
}
1001
GENIUS_GENODEF_13
1002
{
1000
HIER
1070
    10
1002
}
1002
{
1000
MANEDIT
1070
     0
1002
}
1002
{
1000
NOSEL
1070
     0
1002
}
1002
{
1000
BEHIND
1070
     0
1002
}
1002
{
1000
OTHER
1070
     0
1002
}
1002
{
1000
REACTOR
1002
}
  0
POINT
  5
6FD
330
1F
100
AcDbEntity
  8
0
 60
     1
100
AcDbPoint
 10
911.1451858560259
 20
-60.20919011601725
 30
0.0
1001
GENIUS_GENODEF_13
1002
{
1000
HIER
1070
    10
1002
}
1002
{
1000
MANEDIT
1070
     0
1002
}
1002
{
1000
NOSEL
1070
     0
1002
}
1002
{
1000
BEHIND
1070
     0
1002
}
1002
{
1000
OTHER
1070
     0
1002
}
1002
{
1000
REACTOR
1002
}
1001
GENIUS_GENOLIS_13
1002
{
1000
ENT
1005
6EE
1005
6EF
1005
6F0
1005
6F1
1002
}
1001
GENIUS_GENOENT_13
1002
{
1000
MYREF
1005
6FD
1002
}
1002
{
1000
GRP
1005
0
1002
}
1001
GENIUS_GENOBJ-N-CRS_13
1002
{
1000
OWNER
1000
GEN
1002
}
  0
LWPOLYLINE
  5
1403
330
1F
100
AcDbEntity
  8
AM_VIEWS
100
AcDbPolyline
 90
        4
 70
     1
 43
0.0
 10
0.4694220429089456
 20
49.97414149387066
 10
692.6401998826265
 20
49.97414149387066
 10
692.6401998826265
 20
510.8054630300842
 10
0.4694220429089456
 20
510.8054630300842
1001
GENIUS_GENODEF_13
1002
{
1000
HIER
1070
     0
1002
}
1002
{
1000
MANEDIT
1070
     0
1002
}
1002
{
1000
NOSEL
1070
     0
1002
}
1002
{
1000
BEHIND
1070
     0
1002
}
1002
{
1000
OTHER
1070
     0
1002
}
1002
{
1000
REACTOR
1002
}
1001
GENIUS_GENOBJ-N-SDF_13
1002
{
1000
OWNER
1000
GEN
1002
}
1001
GENIUS_GENSCREG_15
1040
2.0
1040
1.0
1011
0.4694220429089456
1021
49.97414149387066
1031
0.0
1011
692.6401998826265
1021
510.8054630300842
1031
0.0
1070
     2
  0
DIMENSION
  5
232A
330
1F
100
AcDbEntity
  8
AM_5
100
AcDbDimension
  2
*D6
 10
74.55468661246868
 20
224.5559214349445
 30
0.0
 11
68.05468661246864
 21
294.5559214349446
 31
0.0
 70
    32
 71
     5
 42
140.0
  3
AM_DIN
100
AcDbAlignedDimension
 13
363.5546866124687
 23
364.5559214349445
 33
0.0
 14
190.5546866124686
 24
224.5559214349445
 34
0.0
 50
90.0
100
AcDbRotatedDimension
1001
ACAD
1000
DSTYLE
1002
{
1070
    40
1040
2.0
1070
   271
1070
     1
1002
}
  0
DIMENSION
  5
232B
330
1F
100
AcDbEntity
  8
AM_5
100
AcDbDimension
  2
*D5
 10
94.55468661246868
 20
294.5559214349446
 30
0.0
 11
88.05468661246862
 21
329.5559214349446
 31
0.0
 70
    32
 71
     5
 42
70.0
  3
AM_DIN
100
AcDbAlignedDimension
 13
363.5546866124687
 23
364.5559214349445
 33
0.0
 14
280.5546866124687
 24
294.5559214349445
 34
0.0
 50
90.0
100
AcDbRotatedDimension
1001
ACAD
1000
DSTYLE
1002
{
1070
    40
1040
2.0
1070
   271
1070
     1
1002
}
  0
DIMENSION
  5
232C
330
1F
100
AcDbEntity
  8
AM_5
100
AcDbDimension
  2
*D4
 10
114.5546866124687
 20
315.5559214349445
 30
0.0
 11
108.0546866124686
 21
340.0559214349446
 31
0.0
 70
    32
 71
     5
 42
49.0
  3
AM_DIN
100
AcDbAlignedDimension
 13
363.5546866124687
 23
364.5559214349445
 33
0.0
 14
260.5546866124689
 24
315.5559214349445
 34
0.0
 50
90.0
100
AcDbRotatedDimension
1001
ACAD
1000
DSTYLE
1002
{
1070
    40
1040
2.0
1070
   271
1070
     1
1002
}
  0
DIMENSION
  5
232D
330
1F
100
AcDbEntity
  8
AM_5
100
AcDbDimension
  2
*D3
 10
54.55468661246823
 20
184.5559214349445
 30
0.0
 11
48.0546866124682
 21
274.5559214349445
 31
0.0
 70
    32
 71
     5
 42
180.0
  3
AM_DIN
100
AcDbAlignedDimension
 13
363.5546866124687
 23
364.5559214349445
 33
0.0
 14
138.5546866124687
 24
184.5559214349444
 34
0.0
 50
90.0
100
AcDbRotatedDimension
1001
ACAD
1000
DSTYLE
1002
{
1070
    40
1040
2.0
1070
   271
1070
     1
1002
}
  0
DIMENSION
  5
232E
330
1F
100
AcDbEntity
  8
AM_5
100
AcDbDimension
  2
*D11
 10
388.5546866124687
 20
160.5559214349446
 30
0.0
 11
358.5546866124687
 21
167.0559214349446
 31
0.0
 70
    32
 71
     5
 42
60.0
  3
AM_DIN
100
AcDbAlignedDimension
 13
328.5546866124687
 23
224.5559214349445
 33
0.0
 14
388.5546866124687
 24
184.5559214349444
 34
0.0
100
AcDbRotatedDimension
1001
ACAD
1000
DSTYLE
1002
{
1070
    40
1040
2.0
1070
   271
1070
     1
1002
}
  0
DIMENSION
  5
232F
330
1F
100
AcDbEntity
  8
AM_5
100
AcDbDimension
  2
*D10
 10
638.5546866124687
 20
80.55592143494505
 30
0.0
 11
388.5546866124687
 21
87.05592143494504
 31
0.0
 70
    32
 71
     5
 42
500.0
  3
AM_DIN
100
AcDbAlignedDimension
 13
138.5546866124687
 23
184.5559214349444
 33
0.0
 14
638.5546866124687
 24
184.5559214349444
 34
0.0
100
AcDbRotatedDimension
1001
ACAD
1000
DSTYLE
1002
{
1070
    40
1040
2.0
1070
   271
1070
     1
1002
}
  0
DIMENSION
  5
2330
330
1F
100
AcDbEntity
  8
AM_5
100
AcDbDimension
  2
*D9
 10
198.5546866124687
 20
100.5559214349441
 30
0.0
 11
293.5546866124687
 21
107.0559214349441
 31
0.0
 70
    32
 71
     5
 42
190.0
  3
AM_DIN
100
AcDbAlignedDimension
 13
388.5546866124687
 23
181.5559214349445
 33
0.0
 14
198.5546866124687
 24
216.5559214349445
 34
0.0
100
AcDbRotatedDimension
1001
ACAD
1000
DSTYLE
1002
{
1070
    40
1040
2.0
1070
   271
1070
     1
1002
}
  0
DIMENSION
  5
2331
330
1F
100
AcDbEntity
  8
AM_5
100
AcDbDimension
  2
*D8
 10
268.5546866124689
 20
120.5559214349444
 30
0.0
 11
328.5546866124688
 21
127.0566104113223
 31
0.0
 70
    32
 71
     5
 42
119.9999999999997
  3
AM_DIN
100
AcDbAlignedDimension
 13
388.5546866124687
 23
184.5559214349444
 33
0.0
 14
268.5546866124689
 24
307.5559214349445
 34
0.0
100
AcDbRotatedDimension
1001
ACAD
1000
DSTYLE
1002
{
1070
    40
1040
2.0
1070
   271
1070
     1
1002
}
  0
DIMENSION
  5
2332
330
1F
100
AcDbEntity
  8
AM_5
100
AcDbDimension
  2
*D7
 10
288.5546866124687
 20
140.5559214349444
 30
0.0
 11
338.5546866124687
 21
147.0559214349443
 31
0.0
 70
    32
 71
     5
 42
100.0
  3
AM_DIN
100
AcDbAlignedDimension
 13
388.5546866124687
 23
181.5559214349445
 33
0.0
 14
288.5546866124687
 24
286.5559214349445
 34
0.0
100
AcDbRotatedDimension
1001
ACAD
1000
DSTYLE
1002
{
1070
    40
1040
2.0
1070
   271
1070
     1
1002
}
  0
DIMENSION
  5
2336
330
1F
100
AcDbEntity
  8
AM_5
100
AcDbDimension
  2
*D14
 10
662.5546866124686
 20
299.5559214349444
 30
0.0
 11
656.0546866124686
 21
242.0559214349446
 31
0.0
 70
    32
 71
     5
 42
114.9999999999999
  3
AM_DIN
100
AcDbAlignedDimension
 13
638.5546866124687
 23
184.5559214349444
 33
0.0
 14
638.5546866124687
 24
299.5559214349445
 34
0.0
 50
90.0
100
AcDbRotatedDimension
1001
ACAD
1000
DSTYLE
1002
{
1070
    40
1040
2.0
1070
   271
1070
     1
1002
}
  0
DIMENSION
  5
2338
330
1F
100
AcDbEntity
  8
AM_5
100
AcDbDimension
  2
*D12
 10
438.5546866124684
 20
254.5559214349445
 30
0.0
 11
461.4698662397146
 21
273.5142854236802
 31
0.0
 70
   164
 71
     5
 42
9.999999999999829
  3
AM_DIN$4
100
AcDbRadialDimension
 15
444.4847782874386
 25
262.6078785092491
 35
0.0
 40
0.0
1001
ACAD
1000
DSTYLE
1002
{
1070
    40
1040
2.0
1070
   271
1070
     1
1002
}
  0
DIMENSION
  5
2339
330
1F
100
AcDbEntity
  8
AM_5
100
AcDbDimension
  2
*D13
 10
472.5546866124687
 20
214.5559214349444
 30
0.0
 11
466.0546866124686
 21
239.5559214349446
 31
0.0
 70
    32
 71
     5
 42
50.00000000000003
  3
AM_DIN
100
AcDbAlignedDimension
 13
438.5546866124687
 23
264.5559214349445
 33
0.0
 14
438.5546866124687
 24
214.5559214349445
 34
0.0
 50
90.0
100
AcDbRotatedDimension
1001
ACAD
1000
DSTYLE
1002
{
1070
    40
1040
2.0
1070
   271
1070
     1
1002
}
  0
DIMENSION
  5
233A
330
1F
100
AcDbEntity
  8
AM_5
100
AcDbDimension
  2
*D16
 10
363.5546866124687
 20
396.5559214349445
 30
0.0
 11
376.0546866124687
 21
403.0566104113224
 31
0.0
 70
    32
 71
     5
 42
25.0
  3
AM_DIN
100
AcDbAlignedDimension
 13
388.5546866124687
 23
367.5559214349445
 33
0.0
 14
363.5546866124687
 24
367.5559214349442
 34
0.0
100
AcDbRotatedDimension
1001
ACAD
1000
DSTYLE
1002
{
1070
    40
1040
2.0
1070
   271
1070
     1
1002
}
  0
DIMENSION
  5
233B
330
1F
100
AcDbEntity
  8
AM_5
100
AcDbDimension
  2
*D15
 10
413.5546866124687
 20
416.5559214349444
 30
0.0
 11
388.5546866124687
 21
423.0559214349445
 31
0.0
 70
    32
 71
     5
 42
50.0
  3
AM_DIN
100
AcDbAlignedDimension
 13
363.5546866124687
 23
364.5559214349445
 33
0.0
 14
413.5546866124687
 24
364.5559214349445
 34
0.0
100
AcDbRotatedDimension
1001
ACAD
1000
DSTYLE
1002
{
1070
    40
1040
2.0
1070
   271
1070
     1
1002
}
  0
DIMENSION
  5
233C
330
1F
100
AcDbEntity
  8
AM_5
100
AcDbDimension
  2
*D17
 10
318.7697175000669
 20
364.5559214349445
 30
0.0
 11
318.7697175000669
 21
345.010946688114
 31
0.0
 70
   160
 71
     5
 42
5.000000000000056
  3
AM_DIN
100
AcDbAlignedDimension
 13
356.5546866124679
 23
359.5559214349445
 33
0.0
 14
413.5546866124687
 24
364.5559214349445
 34
0.0
 50
90.0
100
AcDbRotatedDimension
1001
ACAD
1000
DSTYLE
1002
{
1070
    40
1040
2.0
1070
   271
1070
     1
1002
}
  0
DIMENSION
  5
233D
330
1F
100
AcDbEntity
  8
AM_5
100
AcDbDimension
  2
*D18
 10
388.5546866124687
 20
312.6631317706432
 30
0.0
 11
372.5546870062275
 21
319.1638207470211
 31
0.0
 70
    32
 71
     5
 42
31.99999921248241
  3
AM_DIN
100
AcDbAlignedDimension
 13
356.5546873999863
 23
359.5559217793353
 33
0.0
 14
388.5546866124687
 24
338.8286580885532
 34
0.0
100
AcDbRotatedDimension
1001
ACAD
1000
DSTYLE
1002
{
1070
    40
1040
2.0
1070
   271
1070
     1
1002
}
  0
LWPOLYLINE
  5
233E
330
1F
100
AcDbEntity
  8
0
100
AcDbPolyline
 90
        8
 70
     1
 43
0.0
 10
338.5546866124687
 20
264.5559214349445
 10
438.5546866124687
 20
264.5559214349445
 42
-0.4142135623730959
 10
448.5546866124686
 20
254.5559214349445
 10
448.5546866124686
 20
224.5559214349445
 42
-0.4142135623730943
 10
438.5546866124687
 20
214.5559214349445
 10
338.5546866124687
 20
214.5559214349445
 42
-0.4142135623730953
 10
328.5546866124687
 20
224.5559214349445
 10
328.5546866124687
 20
254.5559214349445
 42
-0.4142135623730946
1001
GENIUS_GENREC_14
1002
{
1000
PYDIR
1011
328.5546866124687
1021
214.5559214349445
1031
0.0
1002
}
1002
{
1000
PXDIR
1011
448.5546866124686
1021
264.5559214349445
1031
0.0
1002
}
1002
{
1000
PORI
1011
328.5546866124687
1021
264.5559214349445
1031
0.0
1002
}
1002
{
1000
PINS
1011
328.5546866124687
1021
264.5559214349445
1031
0.0
1002
}
1002
{
1000
PINS2
1011
448.5546866124686
1021
214.5559214349445
1031
0.0
1002
}
1002
{
1000
C
1070
     1
1002
}
1001
GENIUS_GENOBJ-N-REC_13
1002
{
1000
OWNER
1000
GEN
1002
}
1001
GENIUS_GENODEF_13
1002
{
1000
HIER
1070
     0
1002
}
1002
{
1000
MANEDIT
1070
     0
1002
}
1002
{
1000
NOSEL
1070
     0
1002
}
1002
{
1000
BEHIND
1070
     0
1002
}
1002
{
1000
OTHER
1070
     0
1002
}
1002
{
1000
REACTOR
1002
}
  0
DIMENSION
  5
24E4
102
{ACAD_XDICTIONARY
360
24F1
102
}
102
{ACAD_REACTORS
330
24FB
102
}
330
1F
100
AcDbEntity
  8
AM_5
100
AcDbDimension
  2
*D19
 10
317.5546878821354
 20
453.5559214349445
 30
0.0
 11
228.054687247302
 21
460.0559214349445
 31
0.0
 70
    32
 71
     5
 42
179.0000012696666
  3
AM_DIN
100
AcDbAlignedDimension
 13
138.5546866124687
 23
429.5559214349444
 33
0.0
 14
317.5546878821354
 24
384.5559214349445
 34
0.0
100
AcDbRotatedDimension
1001
ACAD
1000
DSTYLE
1002
{
1070
    40
1040
2.0
1070
   271
1070
     1
1002
}
  0
DIMENSION
  5
2525
102
{ACAD_XDICTIONARY
360
2532
102
}
102
{ACAD_REACTORS
330
253C
102
}
330
1F
100
AcDbEntity
  8
AM_5
100
AcDbDimension
  2
*D20
 10
14.5546866124682
 20
429.5559214349445
 30
0.0
 11
8.053997636090178
 21
307.0559214349446
 31
0.0
 70
    32
 71
     5
 42
245.0
  3
AM_DIN
100
AcDbAlignedDimension
 13
138.5546866124687
 23
184.5559214349444
 33
0.0
 14
138.5546866124687
 24
429.5559214349444
 34
0.0
 50
90.0
100
AcDbRotatedDimension
1001
ACAD
1000
DSTYLE
1002
{
1070
    40
1040
2.0
1070
   271
1070
     1
1002
}
  0
DIMENSION
  5
2566
102
{ACAD_XDICTIONARY
360
2573
102
}
102
{ACAD_REACTORS
330
257D
102
}
330
1F
100
AcDbEntity
  8
AM_5
100
AcDbDimension
  2
*D21
 10
34.55468661246821
 20
384.5559214349446
 30
0.0
 11
28.05399763609019
 21
284.5559214349446
 31
0.0
 70
    32
 71
     5
 42
200.0
  3
AM_DIN
100
AcDbAlignedDimension
 13
138.5546866124687
 23
184.5559214349444
 33
0.0
 14
317.5546878821354
 24
384.5559214349445
 34
0.0
 50
90.0
100
AcDbRotatedDimension
1001
ACAD
1000
DSTYLE
1002
{
1070
    40
1040
2.0
1070
   271
1070
     1
1002
}
  0
DIMENSION
  5
25BB
102
{ACAD_XDICTIONARY
360
25C4
102
}
102
{ACAD_REACTORS
330
25CA
102
}
330
1F
100
AcDbEntity
  8
AM_5
100
AcDbDimension
  2
*D22
 10
582.0367414798822
 20
220.9677054575652
 30
0.0
 11
552.5948425039642
 21
241.7208520010717
 31
0.0
 70
   163
 71
     5
 42
9.999999999999857
  3
AM_DIN$3
100
AcDbDiametricDimension
 15
575.0726317450552
 25
228.1441374123241
 35
0.0
 40
0.0
1001
ACAD
1000
DSTYLE
1002
{
1070
    40
1040
2.0
1070
   271
1070
     1
1002
}
  0
LWPOLYLINE
  5
2E93
330
1F
100
AcDbEntity
  8
AM_3
100
AcDbPolyline
 90
        4
 70
     1
 43
0.0
 10
363.5546866124687
 20
352.5559214349445
 10
413.5546866124687
 20
352.5559214349445
 10
413.5546866124687
 20
364.5559214349445
 10
363.5546866124687
 20
364.5559214349445
1001
GENIUS_GENREC_14
1002
{
1000
PYDIR
1011
363.5546866124687
1021
364.5559214349445
1031
0.0
1002
}
1002
{
1000
PXDIR
1011
413.5546866124687
1021
352.5559214349445
1031
0.0
1002
}
1002
{
1000
PORI
1011
363.5546866124687
1021
352.5559214349445
1031
0.0
1002
}
1002
{
1000
PINS
1011
363.5546866124687
1021
352.5559214349445
1031
0.0
1002
}
1002
{
1000
HVAL
1000
12
1002
}
1002
{
1000
H
1070
     2
1002
}
1002
{
1000
WVAL
1000
50
1002
}
1002
{
1000
W
1070
     2
1002
}
1002
{
1000
C
1070
     1
1002
}
1001
GENIUS_GENOBJ-N-REC_13
1002
{
1000
OWNER
1000
GEN
1002
}
1001
GENIUS_GENODEF_13
1002
{
1000
HIER
1070
     0
1002
}
1002
{
1000
MANEDIT
1070
     0
1002
}
1002
{
1000
NOSEL
1070
     0
1002
}
1002
{
1000
BEHIND
1070
     0
1002
}
1002
{
1000
OTHER
1070
     0
1002
}
1002
{
1000
REACTOR
1002
}
  0
INSERT
  5
3B13
330
1F
100
AcDbEntity
  8
AM_5
100
AcDbBlockReference
  2
*S29
 10
0.0
 20
0.0
 30
0.0
  0
DIMENSION
  5
4CF9
102
{ACAD_XDICTIONARY
360
4D08
102
}
102
{ACAD_REACTORS
330
4D14
102
}
330
1F
100
AcDbEntity
  8
AM_5
100
AcDbDimension
  2
*D23
 10
352.5546878450451
 20
312.6631317706538
 30
0.0
 11
337.8046878450451
 21
319.1631317706538
 31
0.0
 70
    32
 71
     5
 42
3.999999554941155
  3
AM_DIN
100
AcDbAlignedDimension
 13
356.5546873999863
 23
359.5559217793353
 33
0.0
 14
352.5546878450451
 24
359.5559214614362
 34
0.0
 50
0.0000000000017416
100
AcDbRotatedDimension
1001
ACAD
1000
DSTYLE
1002
{
1070
    40
1040
2.0
1070
   271
1070
     1
1002
}
  0
DIMENSION
  5
6CFB
330
1F
100
AcDbEntity
  8
AM_5
100
AcDbDimension
  2
*D24
 10
356.5546873999863
 20
396.5559214349444
 30
0.0
 11
342.1546873999863
 21
403.0559214349444
 31
0.0
 70
    32
 71
     5
 42
7.0
  3
AM_DIN$0
100
AcDbAlignedDimension
 13
363.5546873999863
 23
364.5559217793354
 33
0.0
 14
356.5546873999863
 24
359.5559217793353
 34
0.0
 50
0.0000000000000114
100
AcDbRotatedDimension
1001
ACAD
1000
DSTYLE
1002
{
1070
    40
1040
2.0
1070
   271
1070
     1
1002
}
  0
DIMENSION
  5
6DC9
102
{ACAD_XDICTIONARY
360
6DD6
102
}
102
{ACAD_REACTORS
330
6DD7
102
}
330
1F
100
AcDbEntity
  8
AM_5
100
AcDbDimension
  2
*D25
 10
34.55468661246819
 20
384.5559214349446
 30
0.0
 11
28.05468661246813
 21
407.0559214349445
 31
0.0
 70
    32
 71
     5
 42
45.0
  3
AM_DIN$0
100
AcDbAlignedDimension
 13
138.5546866124687
 23
429.5559214349444
 33
0.0
 14
317.5546878821354
 24
384.5559214349445
 34
0.0
 50
90.0
100
AcDbRotatedDimension
1001
ACAD
1000
DSTYLE
1002
{
1070
    40
1040
2.0
1070
   271
1070
     1
1002
}
  0
DIMENSION
  5
6DF9
102
{ACAD_XDICTIONARY
360
6E06
102
}
102
{ACAD_REACTORS
330
6E07
102
}
330
1F
100
AcDbEntity
  8
AM_5
100
AcDbDimension
  2
*D26
 10
662.5546866124689
 20
299.5559214349444
 30
0.0
 11
656.0546866124687
 21
327.0559214349445
 31
0.0
 70
    32
 71
     5
 42
55.0
  3
AM_DIN$0
100
AcDbAlignedDimension
 13
427.554687882133
 23
354.5559214349445
 33
0.0
 14
638.5546866124687
 24
299.5559214349445
 34
0.0
 50
90.0
100
AcDbRotatedDimension
1001
ACAD
1000
DSTYLE
1002
{
1070
    40
1040
2.0
1070
   271
1070
     1
1002
}
  0
DIMENSION
  5
6E1F
102
{ACAD_XDICTIONARY
360
6E2C
102
}
102
{ACAD_REACTORS
330
6E2D
102
}
330
1F
100
AcDbEntity
  8
AM_5
100
AcDbDimension
  2
*D27
 10
427.554687882133
 20
417.1160628317748
 30
0.0
 11
533.0546876410596
 21
423.6167518081527
 31
0.0
 70
    32
 71
     5
 42
210.9999995178532
  3
AM_DIN$0
100
AcDbAlignedDimension
 13
638.5546873999863
 23
299.5559212296674
 33
0.0
 14
427.554687882133
 24
354.5559214349445
 34
0.0
100
AcDbRotatedDimension
1001
ACAD
1000
DSTYLE
1002
{
1070
    40
1040
2.0
1070
   271
1070
     1
1002
}
  0
DIMENSION
  5
6EFE
102
{ACAD_XDICTIONARY
360
6F0D
102
}
102
{ACAD_REACTORS
330
6F0E
102
}
330
1F
100
AcDbEntity
  8
AM_5
100
AcDbDimension
  2
*D28
 10
461.7115901059996
 20
372.5559214349445
 30
0.0
 11
455.2115901059996
 21
386.9559214349446
 31
0.0
 70
    32
 71
     5
 42
8.0
  3
AM_DIN$0
100
AcDbAlignedDimension
 13
413.5546866124687
 23
364.5559214349445
 33
0.0
 14
437.7115901059997
 24
372.5559214349445
 34
0.0
 50
90.0
100
AcDbRotatedDimension
1001
ACAD
1000
DSTYLE
1002
{
1070
    40
1040
2.0
1070
   271
1070
     1
1002
}
  0
VIEWPORT
  5
20D0
102
{ACAD_XDICTIONARY
360
723E
102
}
330
20CF
100
AcDbEntity
 67
     1
  8
0
100
AcDbViewport
 10
210.0000029338453
 20
148.5000020746477
 30
0.0
 40
656.3474439879134
 41
299.8787142759811
 68
     1
 69
     1
 12
210.0000029338453
 22
148.5000020746477
 13
0.0
 23
0.0
 14
2.5
 24
2.5
 15
10.0
 25
10.0
 16
0.0
 26
0.0
 36
1.0
 17
0.0
 27
0.0
 37
0.0
 42
50.0
 43
0.0
 44
0.0
 45
299.8787142759811
 50
0.0
 51
0.0
 72
   100
 90
    32800
  1

281
     0
 71
     1
 74
     0
110
0.0
120
0.0
130
0.0
111
1.0
121
0.0
131
0.0
112
0.0
122
1.0
132
0.0
 79
     0
146
0.0
  0
INSERT
  5
20D1
330
20CF
100
AcDbEntity
 67
     1
  8
AM_0
100
AcDbBlockReference
  2
DIN-A3
 10
0.0
 20
0.0
 30
0.0
1001
GENIUS_GENOREF_13
1005
20DB
1001
GENIUS_GENODEF_13
1002
{
1000
HIER
1070
     0
1002
}
1002
{
1000
MANEDIT
1070
     0
1002
}
1002
{
1000
NOSEL
1070
     0
1002
}
1002
{
1000
BEHIND
1070
     0
1002
}
1002
{
1000
OTHER
1070
     0
1002
}
1002
{
1000
REACTOR
1002
}
1001
GENIUS_GENOBJ-N-SDF_13
1002
{
1000
OWNER
1000
GEN
1002
}
1001
GENIUS_GENSCREG_15
1040
1.0
1040
1.0
1011
0.0
1021
0.0
1031
0.0
1011
420.0000000000001
1021
297.0
1031
0.0
1070
     3
  0
POINT
  5
20DB
330
20CF
100
AcDbEntity
 67
     1
  8
0
 60
     1
100
AcDbPoint
 10
0.0
 20
0.0
 30
0.0
1001
GENIUS_GENOENT_13
1002
{
1000
MYREF
1005
20DB
1002
}
1002
{
1000
GRP
1005
0
1002
}
1001
GENIUS_GENOBJ-N-TIT_13
1002
{
1000
OWNER
1000
GEN
1002
}
1001
GENIUS_GENOLIS_13
1002
{
1000
ENT
1005
20D2
1005
20D1
1005
13FE
1002
}
1001
GENIUS_GENTITLE_13
1002
{
1000
BORDER
1000
DIN-A3
1002
}
1002
{
1000
TITLE
1000
Wb_kopf_k
1002
}
1002
{
1000
SCALE
1000
1:1
1002
}
1002
{
1000
TITLESTD
1000
DIN
1002
}
1002
{
1000
HRA
1005
20D1
1002
}
1002
{
1000
HTIT
1005
20D2
1002
}
1002
{
1000
GENIUSID
1005
20DB
1002
}
1002
{
1000
UNCHG
1002
{
1000
GEN-TITLE-SIZ
1000
GEN-TITLE-SCA
1002
}
1002
}
1001
GENIUS_GENODEF_13
1002
{
1000
HIER
1070
     1
1002
}
1002
{
1000
MANEDIT
1070
     1
1002
}
1002
{
1000
NOSEL
1070
     0
1002
}
1002
{
1000
BEHIND
1070
     0
1002
}
1002
{
1000
OTHER
1070
     0
1002
}
1002
{
1000
REACTOR
1002
}
  0
VIEWPORT
  5
2E7E
102
{ACAD_XDICTIONARY
360
7241
102
}
330
20CF
100
AcDbEntity
 67
     1
  8
AM_VIEWS
100
AcDbViewport
 10
207.5935850345547
 20
157.0094985864214
 30
0.0
 40
346.0853889198588
 41
230.4156607681068
 68
     2
 69
     2
 12
0.0
 22
0.0
 13
0.0
 23
0.0
 14
2.5
 24
2.5
 15
10.0
 25
10.0
 16
0.0
 26
0.0
 36
1.0
 17
346.5548109627678
 27
280.3898022619775
 37
0.0
 42
50.0
 43
0.0
 44
0.0
 45
460.8313215362136
 50
0.0
 51
0.0
 72
   100
 90
    32880
  1

281
     0
 71
     1
 74
     0
110
0.0
120
0.0
130
0.0
111
1.0
121
0.0
131
0.0
112
0.0
122
1.0
132
0.0
 79
     0
146
0.0
1001
GENIUS_GENOBJ-N-SDF_13
1002
{
1000
OWNER
1000
GEN
1002
}
1001
GENIUS_GENODEF_13
1002
{
1000
HIER
1070
     0
1002
}
1002
{
1000
MANEDIT
1070
     0
1002
}
1002
{
1000
NOSEL
1070
     0
1002
}
1002
{
1000
BEHIND
1070
     0
1002
}
1002
{
1000
OTHER
1070
     0
1002
}
1002
{
1000
REACTOR
1002
}
1001
GENIUS_GENSCREG_15
1000
PF
1040
2.0
1000
DF
1040
1.0
1000
MIN
1011
34.55089057462533
1021
41.80166820236798
1031
0.0
1000
MAX
1011
380.6362794944842
1021
272.2173289704748
1031
0.0
1000
FLAGS
1070
     2
1000
SDF
1005
1403
  0
INSERT
  5
5A25
330
20CF
100
AcDbEntity
 67
     1
  8
AM_6
100
AcDbBlockReference
 66
     1
  2
WB_KOPF_K
 10
409.9999999999999
 20
10.0
 30
0.0
  0
ATTRIB
  5
5A26
330
5A25
100
AcDbEntity
 67
     1
  8
RAHM2
100
AcDbText
 10
408.9999999999999
 20
12.02150323148919
 30
0.0
 40
3.047999999999999
  1

 41
0.75
 72
     2
 11
408.9999999999999
 21
12.02150323148919
 31
0.0
100
AcDbAttribute
  2
ERSATZ_DURCH
 70
     0
  0
ATTRIB
  5
5A27
330
5A25
100
AcDbEntity
 67
     1
  8
RAHM2
100
AcDbText
 10
367.7800000000003
 20
12.02150323148919
 30
0.0
 40
3.047999999999999
  1

 41
0.75
 72
     2
 11
367.7800000000003
 21
12.02150323148919
 31
0.0
100
AcDbAttribute
  2
ERSATZ
 70
     0
  0
ATTRIB
  5
5A28
330
5A25
100
AcDbEntity
 67
     1
  8
RAHM2
100
AcDbText
 10
326.56
 20
12.02150323148919
 30
0.0
 40
3.047999999999999
  1

 41
0.75
 72
     2
 11
326.56
 21
12.02150323148919
 31
0.0
100
AcDbAttribute
  2
URSPRUNG
 70
     0
  0
ATTRIB
  5
5A29
330
5A25
100
AcDbEntity
 67
     1
  8
AM_BOR
 62
     1
370
    25
100
AcDbText
 10
272.7080575966469
 20
11.0
 30
0.0
 40
3.047999999999999
  1

 41
0.75
 72
     1
 11
272.7080575966469
 21
11.0
 31
0.0
100
AcDbAttribute
  2
GEN-TITLE-DWG{8.92}
 70
     0
  0
ATTRIB
  5
5A2A
330
5A25
100
AcDbEntity
 67
     1
  8
AM_BOR
 62
     1
370
    25
100
AcDbText
 10
240.5600000000001
 20
11.0
 30
0.0
 40
3.047999999999999
  1

 41
0.75
 72
     1
 11
240.5600000000001
 21
11.0
 31
0.0
100
AcDbAttribute
  2
GEN-TITLE-SIZ{2.46}
 70
     0
  0
ATTRIB
  5
5A2B
330
5A25
100
AcDbEntity
 67
     1
  8
AM_BOR
100
AcDbText
 10
393.1165969515305
 20
17.35775902156095
 30
0.0
 40
6.349999999999999
  1
-
 41
0.75
100
AcDbAttribute
  2
REVISION
 70
     0
  0
ATTRIB
  5
5A2C
330
5A25
100
AcDbEntity
 67
     1
  8
AM_BOR
100
AcDbText
 10
293.2082076876984
 20
21.09638664867274
 30
0.0
 40
7.0
  1
FKTT-Hang-1gl-180mm
 41
0.75
100
AcDbAttribute
  2
GEN-TITLE-NR
 70
     0
  0
SEQEND
  5
5A2D
330
5A25
100
AcDbEntity
 67
     1
  8
AM_6
  0
TEXT
  5
70FC
330
20CF
100
AcDbEntity
 67
     1
  8
0
100
AcDbText
 10
191.854832501238
 20
22.29189779562844
 30
0.0
 40
5.0
  1
RBS 01/09
100
AcDbText
  0
ENDSEC
  0
SECTION
  2
OBJECTS
  0
DICTIONARY
  5
C
330
0
100
AcDbDictionary
281
     1
  3
ACAD_COLOR
350
668E
  3
ACAD_GROUP
350
D
  3
ACAD_LAYOUT
350
1A
  3
ACAD_MATERIAL
350
668D
  3
ACAD_MLINESTYLE
350
17
  3
ACAD_PLOTSETTINGS
350
19
  3
ACAD_PLOTSTYLENAME
350
E
  3
ACAD_TABLESTYLE
350
668F
  3
ACDBHEADERROUNDTRIPXREC
350
723B
  3
AcDbVariableDictionary
350
33A
  3
AcmDictionary
350
45
  3
AMG
350
41
  3
AMGSNAPSETTINGS
350
85
  3
DWGPROPS
350
723A
  0
DICTIONARY
  5
6886
330
2
100
AcDbDictionary
280
     1
281
     1
  3
ACAD_LAYERSTATES
360
6887
  3
AMLAYER_GROUPCOLORS
360
6AC6
  0
DICTIONARY
  5
332
330
1F
100
AcDbDictionary
280
     1
281
     1
  3
ACAD_SORTENTS
360
6A2A
  0
DICTIONARY
  5
24F1
330
24E4
100
AcDbDictionary
280
     1
281
     1
  3
ACAD_DIMASSOC
360
24FB
  0
DICTIONARY
  5
2532
330
2525
100
AcDbDictionary
280
     1
281
     1
  3
ACAD_DIMASSOC
360
253C
  0
DICTIONARY
  5
2573
330
2566
100
AcDbDictionary
280
     1
281
     1
  3
ACAD_DIMASSOC
360
257D
  0
DICTIONARY
  5
25C4
330
25BB
100
AcDbDictionary
280
     1
281
     1
  3
ACAD_DIMASSOC
360
25CA
  0
DICTIONARY
  5
4D08
330
4CF9
100
AcDbDictionary
280
     1
281
     1
  3
ACAD_DIMASSOC
360
4D14
  0
DICTIONARY
  5
6DD6
330
6DC9
100
AcDbDictionary
280
     1
281
     1
  3
ACAD_DIMASSOC
360
6DD7
  0
DICTIONARY
  5
6E06
330
6DF9
100
AcDbDictionary
280
     1
281
     1
  3
ACAD_DIMASSOC
360
6E07
  0
DICTIONARY
  5
6E2C
330
6E1F
100
AcDbDictionary
280
     1
281
     1
  3
ACAD_DIMASSOC
360
6E2D
  0
DICTIONARY
  5
6F0D
330
6EFE
100
AcDbDictionary
280
     1
281
     1
  3
ACAD_DIMASSOC
360
6F0E
  0
DICTIONARY
  5
723E
330
20D0
100
AcDbDictionary
280
     1
281
     1
  3
ACAD_XREC_ROUNDTRIP
360
723F
  0
DICTIONARY
  5
7241
330
2E7E
100
AcDbDictionary
280
     1
281
     1
  3
ACAD_XREC_ROUNDTRIP
360
7242
  0
DICTIONARY
  5
668E
102
{ACAD_REACTORS
330
C
102
}
330
C
100
AcDbDictionary
281
     1
  0
DICTIONARY
  5
D
102
{ACAD_REACTORS
330
C
102
}
330
C
100
AcDbDictionary
281
     1
  0
DICTIONARY
  5
1A
102
{ACAD_REACTORS
330
C
102
}
330
C
100
AcDbDictionary
281
     1
  3
FKTT-Hang-1gl-180mm
350
20DF
  3
Model
350
22
  0
DICTIONARY
  5
668D
102
{ACAD_REACTORS
330
C
102
}
330
C
100
AcDbDictionary
281
     1
  0
DICTIONARY
  5
17
102
{ACAD_REACTORS
330
C
102
}
330
C
100
AcDbDictionary
281
     1
  3
Standard
350
18
  0
DICTIONARY
  5
19
102
{ACAD_REACTORS
330
C
102
}
330
C
100
AcDbDictionary
281
     1
  0
ACDBDICTIONARYWDFLT
  5
E
102
{ACAD_REACTORS
330
C
102
}
330
C
100
AcDbDictionary
281
     1
  3
Normal
350
F
100
AcDbDictionaryWithDefault
340
F
  0
DICTIONARY
  5
668F
102
{ACAD_REACTORS
330
C
102
}
330
C
100
AcDbDictionary
281
     1
  3
Standard
350
6690
  0
DICTIONARY
  5
723B
102
{ACAD_REACTORS
330
C
102
}
330
C
100
AcDbDictionary
281
     1
  0
DICTIONARY
  5
33A
102
{ACAD_REACTORS
330
C
102
}
330
C
100
AcDbDictionary
281
     1
  3
CTABLESTYLE
350
67B3
  3
DIMASSOC
350
33E
  3
HIDETEXT
350
33D
  3
INDEXCTL
350
33C
  3
PROJECTNAME
350
67B4
  3
SORTENTS
350
33B
  0
DICTIONARY
  5
45
102
{ACAD_REACTORS
330
C
102
}
330
C
100
AcDbDictionary
281
     1
  3
AcmStdDictionary
350
4A
  3
AMDTSECTSYM_ARROWCOLOR
350
66F6
  0
DICTIONARY
  5
41
102
{ACAD_REACTORS
330
C
102
}
330
C
100
AcDbDictionary
281
     1
  3
AcMgSettings
350
71C1
  0
DICTIONARY
  5
85
102
{ACAD_REACTORS
330
C
102
}
330
C
100
AcDbDictionary
281
     1
  0
XRECORD
  5
723A
102
{ACAD_REACTORS
330
C
102
}
330
C
100
AcDbXrecord
280
     1
  1
DWGPROPS COOKIE
  2

  3

  4

  6

  7

  8

  9

300
AmdtFileType=84
301
=
302
=
303
=
304
=
305
=
306
=
307
=
308
=
309
=
 40
1.069019444444444
 41
2453798.966575521
 42
2454844.731425776
  1

 90
        1
  0
DICTIONARY
  5
6887
102
{ACAD_REACTORS
330
6886
102
}
330
6886
100
AcDbDictionary
281
     1
  0
DICTIONARY
  5
6AC6
102
{ACAD_REACTORS
330
6886
102
}
330
6886
100
AcDbDictionary
280
     1
281
     1
  0
SORTENTSTABLE
  5
6A2A
102
{ACAD_REACTORS
330
332
102
}
330
332
100
AcDbSortentsTable
330
1F
331
6E5
  5
6E5
331
6DD
  5
6DD
331
6F5
  5
6F5
331
2339
  5
2339
331
6E1F
  5
6E1F
331
6E6
  5
6E6
331
6DE
  5
6DE
331
232A
  5
232A
331
1403
  5
1403
331
6F6
  5
6F6
331
233A
  5
233A
331
6E7
  5
6E7
331
6DF
  5
6DF
331
232B
  5
232B
331
6F7
  5
6F7
331
4E0
  5
4E0
331
233B
  5
233B
331
6E8
  5
6E8
331
232C
  5
232C
331
233C
  5
233C
331
232D
  5
232D
331
4CF9
  5
4CF9
331
6E9
  5
6E9
331
233D
  5
233D
331
232E
  5
232E
331
25BB
  5
25BB
331
6EA
  5
6EA
331
233E
  5
233E
331
232F
  5
232F
331
6EB
  5
6EB
331
6EC
  5
6EC
331
2330
  5
2330
331
2566
  5
2566
331
6ED
  5
6ED
331
2331
  5
2331
331
6EE
  5
6EE
331
2332
  5
2332
331
6DF9
  5
6DF9
331
6DC9
  5
6DC9
331
6EF
  5
6EF
331
6E0
  5
6E0
331
6CFB
  5
6CFB
331
6F0
  5
6F0
331
6D9
  5
6D9
331
6E1
  5
6E1
331
6F1
  5
6F1
331
6E2
  5
6E2
331
24E4
  5
24E4
331
6DA
  5
6DA
331
2336
  5
2336
331
6F2
  5
6F2
331
3B13
  5
3B13
331
6E3
  5
6E3
331
2E93
  5
2E93
331
6DB
  5
6DB
331
2525
  5
2525
331
6F3
  5
6F3
331
6E4
  5
6E4
331
6DC
  5
6DC
331
4ED
  5
4ED
331
6F4
  5
6F4
331
2338
  5
2338
  0
DIMASSOC
  5
24FB
102
{ACAD_REACTORS
330
24F1
102
}
330
24F1
100
AcDbDimAssoc
330
24E4
 90
        3
 70
     0
 71
     0
  1
AcDbOsnapPointRef
 72
     1
331
4E0
 73
     2
 91
        7
 40
0.0
 10
138.5546866124687
 20
429.5559214349444
 30
0.0
 75
     0
  1
AcDbOsnapPointRef
 72
     1
331
4E0
 73
     2
 91
        6
 40
0.0
 10
317.9727906124687
 20
382.9072144349444
 30
0.0
 75
     0
  0
DIMASSOC
  5
253C
102
{ACAD_REACTORS
330
2532
102
}
330
2532
100
AcDbDimAssoc
330
2525
 90
        3
 70
     0
 71
     0
  1
AcDbOsnapPointRef
 72
    13
331
4E0
 73
     2
 91
        9
 40
0.0
 10
138.5546866124687
 20
184.5559214349444
 30
0.0
 75
     0
  1
AcDbOsnapPointRef
 72
     1
331
4E0
 73
     2
 91
        7
 40
0.0
 10
138.5546866124687
 20
429.5559214349444
 30
0.0
 75
     0
  0
DIMASSOC
  5
257D
102
{ACAD_REACTORS
330
2573
102
}
330
2573
100
AcDbDimAssoc
330
2566
 90
        3
 70
     0
 71
     0
  1
AcDbOsnapPointRef
 72
     1
331
4E0
 73
     2
 91
        8
 40
0.0
 10
138.5546866124687
 20
184.5559214349444
 30
0.0
 75
     0
  1
AcDbOsnapPointRef
 72
     1
331
4E0
 73
     2
 91
        6
 40
0.0
 10
317.9727906124687
 20
382.9072144349444
 30
0.0
 75
     0
  0
DIMASSOC
  5
25CA
102
{ACAD_REACTORS
330
25C4
102
}
330
25C4
100
AcDbDimAssoc
330
25BB
 90
        2
 70
     0
 71
     0
  1
AcDbOsnapPointRef
 72
     3
331
6F2
 73
     2
 91
        0
 40
0.0
 10
578.5546866124686
 20
224.5559214349445
 30
0.0
 75
     0
  0
DIMASSOC
  5
4D14
102
{ACAD_REACTORS
330
4D08
102
}
330
4D08
100
AcDbDimAssoc
330
4CF9
 90
        3
 70
     0
 71
     0
  1
AcDbOsnapPointRef
 72
     1
331
4E0
 73
     2
 91
        4
 40
0.0
 10
0.0
 20
0.0
 30
0.0
 75
     0
  1
AcDbOsnapPointRef
 72
     1
331
4E0
 73
     2
 91
        5
 40
0.0
 10
0.0
 20
0.0
 30
0.0
 75
     0
  0
DIMASSOC
  5
6DD7
102
{ACAD_REACTORS
330
6DD6
102
}
330
6DD6
100
AcDbDimAssoc
330
6DC9
 90
        1
 70
     0
 71
     0
  1
AcDbOsnapPointRef
 72
     1
331
4E0
 73
     2
 91
        7
 40
0.0
 10
0.0
 20
0.0
 30
2.000000000000000E+50
 75
     0
  0
DIMASSOC
  5
6E07
102
{ACAD_REACTORS
330
6E06
102
}
330
6E06
100
AcDbDimAssoc
330
6DF9
 90
        3
 70
     0
 71
     0
  1
AcDbOsnapPointRef
 72
     1
331
4E0
 73
     2
 91
        1
 40
0.0
 10
0.0
 20
0.0
 30
2.000000000000000E+50
 75
     0
  1
AcDbOsnapPointRef
 72
    13
331
4E0
 73
     2
 91
        1
 40
0.0
 10
0.0
 20
0.0
 30
2.000000000000000E+50
 75
     0
  0
DIMASSOC
  5
6E2D
102
{ACAD_REACTORS
330
6E2C
102
}
330
6E2C
100
AcDbDimAssoc
330
6E1F
 90
        2
 70
     0
 71
     0
  1
AcDbOsnapPointRef
 72
     1
331
4E0
 73
     2
 91
        1
 40
0.0
 10
0.0
 20
0.0
 30
2.000000000000000E+50
 75
     0
  0
DIMASSOC
  5
6F0E
102
{ACAD_REACTORS
330
6F0D
102
}
330
6F0D
100
AcDbDimAssoc
330
6EFE
 90
        3
 70
     0
 71
     0
  1
AcDbOsnapPointRef
 72
     1
331
4E0
 73
     2
 91
        2
 40
0.0
 10
0.0
 20
0.0
 30
2.000000000000000E+50
 75
     0
  1
AcDbOsnapPointRef
 72
     1
331
6F7
 73
     0
 91
        0
 40
0.0
 10
0.0
 20
0.0
 30
2.000000000000000E+50
 75
     0
  0
XRECORD
  5
723F
102
{ACAD_REACTORS
330
723E
102
}
330
723E
100
AcDbXrecord
280
     1
102
SHADEPLOT
 70
     0
  0
XRECORD
  5
7242
102
{ACAD_REACTORS
330
7241
102
}
330
7241
100
AcDbXrecord
280
     1
102
SHADEPLOT
 70
     0
  0
LAYOUT
  5
20DF
102
{ACAD_XDICTIONARY
360
68CA
102
}
102
{ACAD_REACTORS
330
1A
102
}
330
1A
100
AcDbPlotSettings
  1

  2
PS2TIFF.pc3
  4
UserDefinedMetric (420.00 x 297.00MM)
  6
AM_VIEW1
 40
0.0
 41
0.0
 42
0.0
 43
0.0
 44
420.0
 45
297.0
 46
0.0
 47
0.0
 48
0.0
 49
0.0
140
420.0
141
297.0
142
1.0
143
1.0
 70
   164
 72
     1
 73
     0
 74
     4
  7
PoPa-0.ctb
 75
     0
147
0.6767676767676769
148
0.0
149
0.0
100
AcDbLayout
  1
FKTT-Hang-1gl-180mm
 70
     1
 71
     1
 10
0.0
 20
0.0
 11
420.0
 21
297.0
 12
0.0
 22
0.0
 32
0.0
 14
-0.0064041928748111
 24
-0.004528679247187
 34
-0.0000000000112498
 15
420.0064100605656
 25
297.0045328285427
 35
0.0000000000002956
146
0.0
 13
0.0
 23
0.0
 33
0.0
 16
1.0
 26
0.0
 36
0.0
 17
0.0
 27
1.0
 37
0.0
 76
     0
330
20CF
331
20D0
1001
ACAD_PSEXT
1000
PS2TIFF.pc3
1000
PostScript-Level 1
1000
AutoSpool
1000
TIFF via PostScript
1070
     0
  0
LAYOUT
  5
22
102
{ACAD_XDICTIONARY
360
723C
102
}
102
{ACAD_REACTORS
330
1A
102
}
330
1A
100
AcDbPlotSettings
  1

  2
PS2PDF.pc3
  4
UserDefinedMetric (420.00 x 297.00MM)
  6

 40
0.0
 41
0.0
 42
0.0
 43
0.0
 44
420.0
 45
297.0
 46
5.528292653219523
 47
100.8854494786622
 48
3913.687913903809
 49
2558.303864167426
140
8003.122060839418
141
3510.594874594181
142
1.0
143
10.0
 70
 11428
 72
     1
 73
     0
 74
     4
  7
PoPa-0.ctb
 75
     0
147
1.0
148
-3913.687913903809
149
-2558.303864167426
100
AcDbLayout
  1
Model
 70
     1
 71
     0
 10
0.0
 20
0.0
 11
12.0
 21
9.0
 12
0.0
 22
0.0
 32
0.0
 14
0.0
 24
0.0
 34
0.0
 15
0.0
 25
0.0
 35
0.0
146
0.0
 13
0.0
 23
0.0
 33
0.0
 16
1.0
 26
0.0
 36
0.0
 17
0.0
 27
1.0
 37
0.0
 76
     0
330
1F
1001
ACAD_PSEXT
1000
Laserdrucker.pc3
1000
PostScript-Level 1
1000
AutoSpool
1000
Laserdrucker PostScript
1070
     0
  0
MLINESTYLE
  5
18
102
{ACAD_REACTORS
330
17
102
}
330
17
100
AcDbMlineStyle
  2
STANDARD
 70
     0
  3

 62
   256
 51
90.0
 52
90.0
 71
     2
 49
0.5
 62
   256
  6
BYLAYER
 49
-0.5
 62
   256
  6
BYLAYER
  0
ACDBPLACEHOLDER
  5
F
102
{ACAD_REACTORS
330
E
102
}
330
E
  0
TABLESTYLE
  5
6690
102
{ACAD_REACTORS
330
668F
102
}
330
668F
100
AcDbTableStyle
  3
Standard
 70
     0
 71
     0
 40
1.5
 41
1.5
280
     0
281
     0
  7
STANDARD
140
4.5
170
     2
 62
     0
 63
     7
283
     0
274
    -2
284
     1
 64
     0
275
    -2
285
     1
 65
     0
276
    -2
286
     1
 66
     0
277
    -2
287
     1
 67
     0
278
    -2
288
     1
 68
     0
279
    -2
289
     1
 69
     0
  7
STANDARD
140
6.0
170
     5
 62
     0
 63
     7
283
     0
274
    -2
284
     1
 64
     0
275
    -2
285
     1
 65
     0
276
    -2
286
     1
 66
     0
277
    -2
287
     1
 67
     0
278
    -2
288
     1
 68
     0
279
    -2
289
     1
 69
     0
  7
STANDARD
140
4.5
170
     5
 62
     0
 63
     7
283
     0
274
    -2
284
     1
 64
     0
275
    -2
285
     1
 65
     0
276
    -2
286
     1
 66
     0
277
    -2
287
     1
 67
     0
278
    -2
288
     1
 68
     0
279
    -2
289
     1
 69
     0
  0
DICTIONARYVAR
  5
67B3
102
{ACAD_REACTORS
330
33A
102
}
330
33A
100
DictionaryVariables
280
     0
  1
STANDARD
  0
DICTIONARYVAR
  5
33E
102
{ACAD_REACTORS
330
33A
102
}
330
33A
100
DictionaryVariables
280
     0
  1
2
  0
DICTIONARYVAR
  5
33D
102
{ACAD_REACTORS
330
33A
102
}
330
33A
100
DictionaryVariables
280
     0
  1
1
  0
DICTIONARYVAR
  5
33C
102
{ACAD_REACTORS
330
33A
102
}
330
33A
100
DictionaryVariables
280
     0
  1
0
  0
DICTIONARYVAR
  5
67B4
102
{ACAD_REACTORS
330
33A
102
}
330
33A
100
DictionaryVariables
280
     0
  1

  0
DICTIONARYVAR
  5
33B
102
{ACAD_REACTORS
330
33A
102
}
330
33A
100
DictionaryVariables
280
     0
  1
33
  0
DICTIONARY
  5
4A
102
{ACAD_REACTORS
330
45
102
}
330
45
100
AcDbDictionary
281
     1
  0
XRECORD
  5
66F6
102
{ACAD_REACTORS
330
45
102
}
330
45
100
AcDbXrecord
280
     1
 90
-1023410169
  0
DICTIONARY
  5
71C1
102
{ACAD_REACTORS
330
41
102
}
330
41
100
AcDbDictionary
281
     1
  3
DWGSETTINGS
350
71C2
  3
TRANSSETTINGS
350
71C3
  0
DICTIONARY
  5
68CA
330
20DF
100
AcDbDictionary
280
     1
281
     1
  3
ACAD_XREC_ROUNDTRIP
360
7240
  3
ADSK_XREC_LAYOUTTHUMBNAIL
360
68CB
  0
DICTIONARY
  5
723C
330
22
100
AcDbDictionary
280
     1
281
     1
  3
ACAD_XREC_ROUNDTRIP
360
723D
  0
XRECORD
  5
7240
102
{ACAD_REACTORS
330
68CA
102
}
330
68CA
100
AcDbXrecord
280
     1
102
SHADEPLOT
 70
     1
102
SHADEPLOTRESLEVEL
 70
     2
102
SHADEPLOTCUSTOMDPI
 70
   300
  0
XRECORD
  5
68CB
102
{ACAD_REACTORS
330
68CA
102
}
330
68CA
100
AcDbXrecord
280
     1
310
28000000B40000007F00000001000800000000004C590000000000000000000000010000000000000000000000000000FFFFFF000000000000000000000000000000000000000000000000000000000000000000330000006600000099000000CC000000FF00000000330000333300006633000099330000CC330000FF3300
310
0000660000336600006666000099660000CC660000FF66000000990000339900006699000099990000CC990000FF99000000CC000033CC000066CC000099CC0000CCCC0000FFCC000000FF000033FF000066FF000099FF0000CCFF0000FFFF000000003300330033006600330099003300CC003300FF003300003333003333
310
33006633330099333300CC333300FF33330000663300336633006666330099663300CC663300FF66330000993300339933006699330099993300CC993300FF99330000CC330033CC330066CC330099CC3300CCCC3300FFCC330000FF330033FF330066FF330099FF3300CCFF3300FFFF330000006600330066006600660099
310
006600CC006600FF00660000336600333366006633660099336600CC336600FF33660000666600336666006666660099666600CC666600FF66660000996600339966006699660099996600CC996600FF99660000CC660033CC660066CC660099CC6600CCCC6600FFCC660000FF660033FF660066FF660099FF6600CCFF6600
310
FFFF660000009900330099006600990099009900CC009900FF00990000339900333399006633990099339900CC339900FF33990000669900336699006666990099669900CC669900FF66990000999900339999006699990099999900CC999900FF99990000CC990033CC990066CC990099CC9900CCCC9900FFCC990000FF99
310
0033FF990066FF990099FF9900CCFF9900FFFF99000000CC003300CC006600CC009900CC00CC00CC00FF00CC000033CC003333CC006633CC009933CC00CC33CC00FF33CC000066CC003366CC006666CC009966CC00CC66CC00FF66CC000099CC003399CC006699CC009999CC00CC99CC00FF99CC0000CCCC0033CCCC0066CC
310
CC0099CCCC00CCCCCC00FFCCCC0000FFCC0033FFCC0066FFCC0099FFCC00CCFFCC00FFFFCC000000FF003300FF006600FF009900FF00CC00FF00FF00FF000033FF003333FF006633FF009933FF00CC33FF00FF33FF000066FF003366FF006666FF009966FF00CC66FF00FF66FF000099FF003399FF006699FF009999FF00CC
310
99FF00FF99FF0000CCFF0033CCFF0066CCFF0099CCFF00CCCCFF00FFCCFF0000FFFF0033FFFF0066FFFF0099FFFF00CCFFFF00FFFFFF00000000000D0D0D001A1A1A00282828003535350043434300505050005D5D5D006B6B6B00787878008686860093939300A1A1A100AEAEAE00BBBBBB00C9C9C900D6D6D600E4E4E400
310
F1F1F100FFFFFF0000000000000000000000000000000000000000000000000000000000000000000000000000000000BEBEBEBEBEBEBEBEBEBEBEBEBEBEBEBEBEBEBEBEBEBEBEBEBEBEBEBEBEBEBEBEBEBEBEBEBEBEBEBEBEBEBEBEBEBEBEBEBEBEBEBEBEBEBEBEBEBEBEBEBEBEBEBEBEBEBEBEBEBEBEBEBEBEBEBEBEBEBE
310
BEBEBEBEBEBEBEBEBEBEBEBEBEBEBEBEBEBEBEBEBEBEBEBEBEBEBEBEBEBEBEBEBEBEBEBEBEBEBEBEBEBEBEBEBEBEBEBEBEBEBEBEBEBEBEBEBEBEBEBEBEBEBEBEBEBEBEBEBEBEBEBEBEBEBEBEBEBEBEBEBEBEBEBEBEBEBEBEBEBEBEBEBEBEBEBEBEBEBEF5EFBEE2E2E2E2E2E2E2E2E2E2E2E2E2E2E2E2E2E2E2E2E2E2E2E2E2
310
E2E2E2E2E2E2E2E2E2E2E2E2E2E2E2E2E2E2E2E2E2E2E2E2E2E2E2BEE2E2E2E2E2E2E2E2E2E2E2E2E2E2E2E2E2E2E2E2E2E2E2E2E2E2E2E2E2E2E2E2E2E2E2E2E2E2E2E2E2E2E2BEE2E2E2E2E2E2E2E2E2E2E2E2E2E2E2E2E2E2E2E2E2E2E2E2E2E2E2E2E2E2E2E2E2E2E2E2E2E2E2E2E2E2E2E2E2E2E2E2E2E2E2E2E2E2E2
310
E2E2E2E2E2E2E2E2E2E2E2E2E2E2E2E2E2E2E2E2E2E2E2E2BEF5EFBEE2F5F5F5F5F5F5F5F5F5F5F5F5F5F5F5F5F5F5F5F5F5F5F5F5F5F5F5F5F5F5F5F5F5F5F5F5F5F5F5F5F5F5F5F5F5F5F5F5F5F5F5BEF5F5F5F5F5F5F5F5F5F5F5F5F5F5F5F5F5F5F5F5F5F5F5F5F5F5F5F5F5F5F5F5F5F5DCF5F5F5F5F5F5F5F5F5F5F5
310
F5F5F5F5F5F5F5F5F5F5BEF5F5F5F5F5F5F5F5F5F5F5F5F5F5F5F5F5F5F5F5BEF5F5F5F5F5F5F5F5F5F5F5F5F5F5F5F5F5F5F5F5BEF5F5F5F5F5F5F5F5F5F5F5F5F5F5F5F5F5F5F5F5F5F5F5E2BEF5EFBEE2F5E2E2E2E2E2E2E2E2E2E2E2BEE2E2E2E2E2E2E2E2E2E2BEE2E2E2E2E2E2E2E2E2BEBEE2E2E2E2E2E2E2E2E2BE
310
E2E2E2E2E2E2E2E2E2BEBEE2E2E2E2E2E2E2E2E2BEE2E2E2E2E2E2E2E2E2E2BEE2E2E2E2E2E2E2E2E2DCE2E2E2E2E2E2E2E2E2E2BEE2E2E2E2E2E2E2E2E2E2BEE2E2E2E2E2E2E2E2E2BEBEE2E2E2E2E2E2E2E2E2BEE2E2E2E2E2E2E2E2E2E2BEE2E2E2E2E2E2E2E2E2BEE2E2E2E2E2E2E2E2E2BEBEE2E2E2E2E2E2E2E2E2E2
310
E2F5E2BEF5EFBEE2F5E2BEBEBEBEBEBEBEBEBEBEBEBEBEBEBEBEBEBEBEBEBEBEBEBEBEBEBEBEBEBEBEBEBEBEBEBEBEBEBEBEBEBEBEBEBEBEBEBEBEBEBEBEBEBEBEBEBEBEBEBEBEBEBEBEBEBEBEBEBEBEBEBEBEBEBEBEBEBEBEBEBEBEBEBEDCBEBEBEBEBEBEBEBEBEBEBEBEBEBEBEBEBEBEBEBEBEBEBEBEBEBEBEBEBEBEBEBE
310
BEBEBEBEBEBEBEBEBEBEBEBEBEBEBEBEBEBEBEBEBEBEBEBEBEBEBEBEBEBEBEBEBEBEBEBEBEBEBEBEBEBEBEBEBEBEBEBEBEBEBEBEBEE2F5E2BEF5EFBEE2F5E2BEE2E2E2E2E2E2E2E2E2E2E2E2E2E2E2E2E2E2E2E2E2E2E2E2E2E2E2E2E2E2E2E2E2E2E2E2E2E2E2E2E2E2E2E2E2E2E2E2E2E2E2E2E2E2E2E2E2E2E2E2E2E2E2
310
E2E2E2E2E2E2E2E2E2E2E2E2E2E2E2E2E2E2E2E2E2E2E2E2E2E2E2E2BEBEBEBEE2E2E2BEBEBEBEBEE2E2E2E2E2E2E2E2E2E2E2E2E2BEBEBEBEE2E2E2E2E2E2E2E2E2E2E2E2E2BEBEBEBEBEBEBEBEBEE2E2E2E2E2E2E2E2E2BEBEBEBEBEBEBEBEE2E2E2E2E2E2E2E2E2BEE2F5E2BEF5EFBEE2F5E2BEE2E2E2E2E2E2E2E2E2E2
310
E2E2E2E2E2E2E2E2E2E2E2E2E2E2E2E2E2E2E2E2E2E2E2E2E2E2E2E2E2E2E2E2E2E2E2E2E2E2E2E2E2E2E2E2E2E2E2E2E2E2E2E2E2E2E2E2E2E2E2E2E2E2E2E2E2E2E2E2E2E2E2E2E2E2E2E2E2E2E2E2E2BEBEBEBEE2E2E2BEBEBEBEBEE2E2E2E2E2E2E2E2E2E2E2E2E2BEBEBEBEBEE2E2E2E2E2E2E2E2E2E2E2E2BEBEBEBE
310
BEBEE2BEE2E2E2E2E2E2E2E2E2E2BEBEBEBEBEBEBEBEE2E2E2E2E2E2E2E2E2BEE2F5E2BEF5EFBEE2F5E2BEE2E2E2E2E2E2E2E2E2E2E2E2E2E2E2E2E2E2E2E2E2E2E2E2E2E2E2E2E2E2E2E2E2E2E2E2E2E2E2E2E2E2E2E2E2E2E2E2E2E2E2E2E2E2E2E2E2E2E2E2E2E2E2E2E2E2E2E2E2E2E2E2E2E2E2E2E2E2E2E2E2E2E2E2
310
E2E2E2E2E2E2E2DCDCDCDCDCDCDCDCDCDCDCDCDCDCDCDCDCDCDCDCDCDCDCDCDCDCDCDCDCDCDCDCDCDCDCDCDCDCDCDCDCDCDCDCDCDCDCDCDCDCDCDCDCDCDCDCDCDCDCDCDCDCDCDCDCDCDCDCDCDCDCDCDCDCDCDCDCBEE2F5E2BEF5EFBEE2F5E2BEE2E2E2E2E2E2E2E2E2E2E2E2E2E2E2E2E2E2E2E2E2E2E2E2E2E2E2E2E2E2E2
310
E2E2E2E2E2E2E2E2E2E2E2E2E2E2E2E2E2E2E2E2E2E2E2E2E2E2E2E2E2E2E2E2E2E2E2E2E2E2E2E2E2E2E2E2E2E2E2E2E2E2E2E2E2E2E2E2E2E2E2E2DCE2E2F5F5F5F5F5F5F5F5F5F5F5F5F5F5F5F5F5F5F5F5F5E2E2E2BEE2E2E2E2E2E2E2E2E2E2E2E2E2E2F5E2E2E2F5E2E2E2E2E2E2E2E2E2E2E2E2E2E2E2E2E2E2E2E2
310
E2E2E2F5F5E2E2E2E2E2BEE2F5E2BEF5EFBEE2F5E2BEE2E2E2E2E2E2E2E2E2E2E2E2E2E2E2E2E2E2E2E2E2E2E2E2E2E2E2E2E2E2E2E2E2E2E2E2E2E2E2E2E2E2E2E2E2E2E2E2E2E2E2E2E2E2E2E2E2E2E2E2E2E2E2E2E2E2E2E2E2E2E2E2E2E2E2E2E2E2E2E2E2E2E2E2E2E2E2E2E2E2E2DCE2E2F5F5F5F5F5F5F5F5F5F5F5
310
F5F5F5F5F5F5F5F5F5F5E2E2E2BEF5E2F5F5F5E2F5E2E2F5F5F5F5F5F5E2E2F5F5F5E2E2F5F5F5F5F5F5F5F5E2E2E2E2E2E2E2E2E2E2E2E2BEE2E2E2E2E2E2BEE2F5E2BEF5EFBEE2F5E2BEE2E2E2E2E2E2E2E2E2E2E2E2E2E2E2E2E2E2E2E2E2E2E2E2E2E2E2E2E2E2E2E2E2E2E2E2E2E2E2E2E2E2E2E2E2E2E2E2E2E2E2E2
310
E2E2E2E2E2E2E2E2E2E2E2E2E2E2E2E2E2E2E2E2E2E2E2E2F5F5F5F5F5F5F5F5F5F5F5F5F5E2E2DCE2E2F5F5F5F5F5F5F5F5F5F5F5F5F5F5F5F5F5F5F5F5F5E2E2E2BEF5E2F5F5F5E2F5F5F5F5F5F5F5F5F5F5F5F5F5F5F5F5F5F5F5F5F5F5F5F5E2E2E2E2E2E2E2E2E2E2E2E2BEE2E2E2E2E2E2BEE2F5E2BEF5EFBEE2F5E2
310
BEE2E2E2E2E2E2E2E2E2E2E2E2E2E2E2E2E2E2E2E2E2E2E2E2E2E2E2E2E2E2E2E2E2E2E2E2E2E2E2E2E2E2E2E2E2E2E2E2E2E2E2E2E2E2E2E2E2E2E2E2E2E2E2E2E2E2E2E2E2E2E2E2E2E2E2E2F5F5F5F5F5E2F5F5F5F5F5F5F5E2E2DCE2E2F5F5F5F5F5F5F5F5F5F5F5F5F5F5F5F5F5F5F5F5F5E2E2E2BEF5F5F5F5F5E2F5
310
E2E2F5F5F5F5F5F5E2E2F5F5F5E2E2F5F5F5F5F5F5F5F5E2E2E2E2E2E2E2E2E2E2E2E2BEE2E2E2E2E2E2BEE2F5E2BEF5EFBEE2F5E2BEE2E2E2E2E2E2E2E2E2E2E2E2E2E2E2E2E2E2E2E2E2E2E2E2E2E2E2E2E2E2E2E2E2E2E2E2E2E2E2E2E2E2E2E2E2E2E2E2E2E2E2E2E2E2E2E2E2E2E2E2E2E2E2E2E2E2E2E2E2E2E2E2E2
310
E2E2E2F5F5F5E2F5E2F5E2F5F5E2F5F5E2E2DCE2E2F5F5F5F5F5F5F5F5F5F5F5F5F5F5F5F5F5F5F5F5F5E2E2E2BEF5F5F5F5F5F5F5E2E2F5F5E2E2E2E2E2E2F5E2F5E2E2F5F5F5F5E2E2E2E2E2E2E2E2E2E2E2E2E2E2E2E2BEE2E2E2E2E2E2BEE2F5E2BEF5EFBEE2F5E2BEE2E2E2E2E2E2E2E2E2E2E2E2E2E2E2E2E2E2E2E2
310
E2E2E2E2E2E2E2E2E2E2E2E2E2E2E2E2E2E2E2E2E2E2E2E2E2E2E2E2E2E2E2E2E2E2E2E2E2E2E2E2E2E2E2E2E2E2E2E2E2E2E2E2E2E2E2E2E2E2E2E2E2E2E2E2E2E2E2E2E2E2E2DCE2E2E2E2E2E2E2E2E2E2E2E2E2E2E2E2E2E2E2E2E2E2E2E2E2E2BEE2E2E2E2E2E2E2E2E2E2E2E2E2E2E2E2E2E2E2E2E2E2E2E2E2E2E2E2
310
E2E2E2E2E2E2E2E2E2E2E2E2E2E2BEBEBEE2E2E2E2BEBEF5E2BEF5EFBEE2F5BEBEE2E2E2E2E2E2E2E2E2E2E2E2E2E2E2E2E2E2E2E2E2E2E2E2E2E2E2E2E2E2E2E2E2E2E2E2E2E2E2E2E2E2E2E2E2E2E2E2E2E2E2E2E2E2E2E2E2E2E2E2E2E2E2E2E2E2E2E2E2E2E2E2E2E2E2E2E2E2E2E2E2E2E2E2E2E2E2E2E2E2E2DCDCDC
310
DCDCDCDCDCDCDCDCDCDCDCDCDCDCDCDCDCDCDCDCDCDCDCDCDCDCDCDCDCDCDCDCDCDCDCDCDCDCDCDCDCDCDCDCDCDCDCDCDCDCDCDCDCDCDCDCDCDCDCDCDCDCDCDCDCDCDCDCDCDCDCDCDCDCBEBEF5E2BEF5EFBEE2F5BEBEE2E2E2E2E2E2E2E2E2E2E2E2E2E2E2E2E2E2E2E2E2E2E2E2E2E2E2E2E2E2E2E2E2E2E2E2E2E2E2E2E2
310
E2E2E2E2E2E2E2E2E2E2E2E2E2E2E2E2E2E2E2E2E2E2E2E2E2E2E2E2E2E2E2E2E2E2E2E2E2E2E2E2E2E2E2E2E2E2E2E2E2E2E2E2E2E2E2E2E2E2E2E2E2E2E2E2E2E2E2E2E2E2E2E2E2E2E2E2E2E2E2E2E2E2E2E2E2E2E2E2E2E2E2E2E2E2E2E2E2E2E2E2E2E2E2E2E2E2E2E2E2E2E2E2E2E2E2E2E2E2E2E2E2E2E2E2E2E2E2
310
BEBEF5E2BEF5EFBEE2F5E2BEE2E2E2E2E2E2E2E2E2E2E2E2E2E2E2E2E2E2E2E2E2E2E2E2E2E2E2E2E2E2E2E2E2E2E2E2E2E2E2E2E2E2E2E2E2E2E2E2E2E2E2E2E2E2E2E2E2E2E2E2E2E2E2E2E2E2E2E2E2E2E2E2E2E2E2E2E2E2E2E2E2E2E2E2E2E2E2E2E2E2E2E2E2E2E2E2E2E2E2E2E2E2E2E2E2E2E2E2E2E2E2E2E2E2E2
310
E2E2E2E2E2E2E2E2E2E2E2E2E2E2E2E2E2E2E2E2E2E2E2E2E2E2E2E2E2E2E2E2E2E2E2E2E2E2E2E2E2E2E2E2E2E2E2E2E2E2E2E2E2BEE2F5E2BEF5EFBEE2F5E2BEE2E2E2E2E2E2E2E2E2E2E2E2E2E2E2E2E2E2E2E2E2E2E2E2E2E2E2E2E2E2E2E2E2E2E2E2E2E2E2E2E2E2E2E2E2E2E2E2E2E2E2E2E2E2E2E2E2E2E2E2E2E2
310
E2E2E2E2E2E2E2E2E2E2E2E2E2E2E2E2E2E2E2E2E2E2E2E2E2E2E2E2E2E2E2E2E2E2E2E2E2E2E2E2E2E2E2E2E2E2E2E2E2E2E2E2E2E2E2E2E2E2E2E2E2E2E2E2E2E2E2E2E2E2E2E2E2E2E2E2E2E2E2E2E2E2E2E2E2E2E2E2E2E2E2E2E2E2E2E2E2E2E2E2E2E2E2E2E2E2BEE2F5E2BEF5EFBEE2F5E2BEE2E2E2E2E2E2E2E2E2
310
BEBEBEBEBEBEBEBEBEBEBEBEBEBEBEBEBEBEBEBEBEBEBEBEBEBEBEBEBEBEBEBEBEBEBEBEBEBEBEBEBEBEBEBEBEBEBEBEBEBEBEBEBEBEBEBEBEBEBEBEBEBEBEBEBEBEBEBEBEBEBEBEBEBEBEBEBEBEBEBEBEBEBEBEBEBEBEBEBEBEBEBEBEBEBEBEBEBEBEBEBEBEBEBEBEBEBEBEBEBEBEBEBEBEBEBEBEBEBEBEBEBEBEBEBEBEBE
310
BEBEBEBEBEBEBEBEBEBEBEBEBEBEBEBEBEBEBEBEBEE2E2E2E2E2E2E2E2E2E2E2BEE2F5E2BEF5EFBEE2F5E2BEE2E2E2E2E2E2E2E2E2BEE2E2E2E2E2E2E2E2E2E2E2E2E2E2E2E2E2E2E2E2E2E2E2E2E2E2E2E2E2E2E2E2E2E2E2E2E2E2E2E2E2E2E2E2E2E2E2E2E2E2E2E2E2E2E2E2E2E2E2E2E2E2E2E2E2E2E2E2E2E2E2E2E2
310
E2E2E2E2E2E2E2E2E2E2E2E2E2E2E2E2E2E2E2E2E2E2E2E2E2E2E2E2E2E2E2E2E2E2E2E2E2E2E2E2E2E2E2E2E2E2E2E2E2E2E2E2E2E2E2E2E2E2E2E2E2E2E2E2E2E2E2E2E2E2E2E2E2BEE2E2E2E2E2E2E2E2E2E2E2BEE2F5E2BEF5EFBEE2F5E2BEE2E2E2E2E2E2E2E2E2BEE2E2E2E2E2E2E2E2E2E2E2E2E2E2E2E2E2E2E2E2
310
E2E2E2E2E2E2E2E2E2E2E2E2E2E2E2E2E2E2E2E2E2E2E2E2E2E2E2E2E2E2E2E2E2E2E2E2E2E2E2E2E2E2E2E2E2E2E2E2E2E2E2E2E2E2E2E2E2E2E2E2E2E2E2E2E2E2E2E2E2E2E2E2E2E2E2E2E2E2E2E2E2E2E2E2E2E2E2E2E2E2E2E2E2E2E2E2E2E2E2E2E2E2E2E2E2E2E2E2E2E2E2E2E2E2E2E2E2E2E2E2E2E2E2E2E2E2BE
310
E2E2E2E2E2E2E2E2E2E2E2BEE2F5E2BEF5EFBEE2F5E2BEE2E2E2E2E2E2E2E2E2BEE2E2E2E2E2E2E2E2E2E2E2E2E2E2E2E2E2E2E2E2E2E2E2E2E2E2E2E2E2E2E2E2E2E2E2E2E2E2E2E2E2E2E2E2E2E2E2E2E2E2E2E2E2E2E2E2E2E2E2E2E2E2E2E2E2E2E2E2E2E2E2E2E2E2E2E2E2E2E2E2E2E2E2E2E2E2E2E2E2E2E2E2E2E2
310
E2E2E2E2E2E2E2E2E2E2E2E2E2E2E2E2E2E2E2E2E2E2E2E2E2E2E2E2E2E2E2E2E2E2E2E2E2E2E2E2E2E2E2E2E2E2E2E2E2E2E2E2BEE2E2E2E2E2E2E2E2E2E2E2BEE2F5E2BEF5EFBEE2F5E2BEE2E2E2E2E2E2E2E2E2BEE2E2E2E2E2E2E2E2E2E2E2E2E2E2E2E2E2E2E2E2E2E2E2E2E2E2E2E2E2E2E2E2E2E2E2E2E2E2E2E2E2
310
E2E2E2E2E2E2E2E2E2E2E2E2E2E2E2E2E2E2E2E2E2E2E2E2E2E2E2E2E2E2E2E2E2E2E2E2E2E2E2E2E2E2E2E2E2E2E2E2E2E2E2E2E2E2E2E2E2E2E2E2E2E2E2E2E2E2E2E2E2E2E2E2E2E2E2E2E2E2E2E2E2E2E2E2E2E2E2E2E2E2E2E2E2E2E2E2E2E2E2E2E2E2E2E2E2BEE2E2E2E2E2E2E2E2E2E2E2BEE2F5E2BEF5EFBEE2F5
310
E2BEE2E2E2E2E2E2E2E2E2BEE2E2E2E2E2E2E2E2E2E2E2E2E2E2E2E2E2E2E2E2E2E2E2E2E2E2E2E2E2E2E2E2E2E2E2E2E2E2E2E2E2E2E2E2E2E2E2E2E2E2E2E2E2E2E2E2E2E2E2E2E2E2E2E2E2E2E2E2E2E2E2E2E2E2E2E2E2E2E2E2E2E2E2E2E2E2E2E2E2E2E2E2E2E2E2E2E2E2E2E2E2E2E2E2E2E2E2E2E2E2E2E2E2E2E2
310
E2E2E2E2E2E2E2E2E2E2E2E2E2E2E2E2E2E2E2E2E2E2E2E2E2E2E2E2E2E2E2BEE2E2E2E2E2E2E2E2E2E2E2BEE2F5E2BEF5EFBEE2F5BEBEE2E2E2E2E2E2E2E2E2BEE2E2E2E2E2E2E2E2E2E2E2E2E2E2E2E2E2E2E2E2E2E2E2E2E2E2E2E228282828282828282828282828282828282828282828282828282828282828282828
310
2828282828282828282828282828282828282828282828282828282828282828282828282828282828282828282828282828282828282828282828282828282828282828282828282828E2E2E2E2E2E2E2E2E2E2BEE2E2E2E2E2E2E2E2E2E2E2BEBEF5E2BEF5EFBEE2F5E2BEE2E2E2E2E2E2E2E2E2BEE2E2E2E2E2E2E2E2E2
310
E2E2E2E2E2E2E2E2E2E2E2E2E2E2E2E2E2E2E228E2E2E2E2E2E2E2E2E2E2E2E2E2E2E2E2E2E2E2E2E2E2E2E2E2E2E2E2E2E2E2E2E2E2E2E2E2E2E2E2E2E2E2E2E2E2E2E2E2E2E2DCDCDCDCE2E2E2E2E2E2E2E2E2E2E2E2E2E2E2E2E2E2E2E2E2E2E2E2E2E2E2E2E2E2E2E2E2E2E2E2E2E2E2E2E2E2E2E2E2E2E2E2E2E2E228
310
E2E2E2E2E2E2E2E2E2E2BEE2E2E2E2E2E2E2E2E2E2E2BEE2F5E2BEF5EFBEE2F5E2BEE2E2E2E2E2E2E2E2E2BEE2E2E2E2E2E2E2E2E2E2E2E2E2E2E2E2E2E2E2E2E2E2E2E2E2E2E2E228E2E2E2E2E2E2E2E2E2E2E2E2E2E2E2E2E2E2E2E2E2E2E2E2E2E2E2E2E2E2E2E2E2E2E2E2E2E2E2E2E2E2E2E2E2E2E2E2E2E2E2DCDCDC
310
DCE2E2E2E2E2E2E2E2E2E2E2E2E2E2E2E2E2E2E2E2E2E2E2E2E2E2E2E2E2E2E2E2E2E2E2E2E2E2E2E2E2E2E2E2E2E2E2E2E2E2E228E2E2E2E2E2E2E2E2E2E2BEE2E2E2E2E2E2E2E2E2E2E2BEE2F5E2BEF5EFBEE2F5E2BEE2E2E2E2E2E2E2E2E2BEE2E2E2E2E2E2E2E2E2E2E2E2E2E2E2E2E2E2E2E2E2E2E2E2E2E2E2E228E2
310
E2E2E2E2E2E2E2E2E2E2E2E2E2E2E2E2E2E2E2E2E2E2E2E2E2E2E2E2E2E2E2E2E2E2E2E2E2E2E2E2E2E2E2E2E2E2E2E2E2E2E2E2E2E2E2E2E2E2E2E2E2E2E2E2E2E2E2E2E2E2E2E2E2E2E2E2E2E2E2E2E2E2E2E2E2E2E2E2E2E2E2E2E2E2E2E2E2E2E2E2E2E2E2E2E228E2E2E2E2E2E2E2E2E2E2BEE2E2E2E2E2E2E2E2E2E2
310
E2BEE2F5E2BEF5EFBEE2F5E2BEE2E2E2E2E2E2E2E2E2BEE2E2E2E2E2E2E2E2E2E2E2E2E2E2E2E2E2E2E2E2E2E2E2E2E2E2E2E228E2E2E2E2E2E2E2E2E2E2E2E22828282828282828282828282828282828282828282828282828282828282828282828282828282828E2E2E2E2E2E2E2E2E2E2E2E2E2E2E2E2E2E2E2E2E2E2
310
E2E2E2E2E2E2E2E2E2E2E2E2E2E2E2E2E2E2E2E2E2E2E2E2E2E2E2E2E2E2E228E2E2E2E2E2E2E2E2E2E2BEE2E2E2E2E2E2E2E2E2E2E2BEE2F5E2BEF5EFBEE2F5E2BEE2E2E2E2E2E2E2E2E2BEE2E2E2E2E2E2E2E2E2E2E2E2E2E2E2E2E2E2E2E2E2E2E2E2E2E2E2E228E2E2E2E2E2E2E2E2E2E2E2E22828E2E2E2E2E2E2E2E2
310
E2E2E2E2E2E2E2E2E2DCDCDCE2E2E2E2E2E2E2E2E2E2E2E2E2E2E2E2E22828E2E2E2E2E2E2E2E2E2E2E2E2E2E2E2E2E2E2E2E2E2E2E2E2E2E2E2E2E2E2E2E2E2E2E2E2E2E2E2E2E2E2E2E2E2E2E2E2E2E2E2E2E228E2E2E2E2E2E2E2E2E2E2BEE2E2E2E2E2E2E2E2E2E2E2BEE2F5E2BEF5EFBEE2F5E2BEE2E2E2E2E2E2E2E2
310
E2BEE2E2E2E2E2E2E2E2E2E2E2E2E2E2E2E2E2E2E2E2E2E2E2E2E2E2E2E228E2E2E2E2E2E2E2E2E2E2E2E228E2E2E2E2E2E2E2E2E2E2E2E2E2E2E2E2E2E2DCDCDCE2E2E2E2E2E2E2E2E2E2E2E2E2E2E2E2E2E228E2E2E2E2E2E2E2E2E2E2E2E2E2E2E2E2E2E2E2E2E2E2E2E2E2E2E2E2E2E2E2E2E2E2E2E2E2E2E2E2E2E2E2
310
E2E2E2E2E2E2E2E2E2E228E2E2E2E2E2E2E2E2E2E2BEE2E2E2E2E2E2E2E2E2E2E2BEE2F5E2BEF5EFBEE2F5E2BEE2E2E2E2E2E2E2E2E2BEE2E2E2E2E2E2E2E2E2E2E2E2E2E2E2E2E2E2E2E2E2E2E2E2E2E2E2E228E2E2E2E2E2E2E2E2E2E2E2E228E2E2E2E2E2E2E2E2E2E2E2E2E2E2E2E2E2E2DCDCDCE2E2E2E2E2E2E2E2E2
310
E2E2E2E2E2E2E2E2E228E2E2E2E2E2E2E2E2E2E2E2E2E2E2E2E2E2E2E2E2E2E2E2E2E2E2E2E2E2E2E2E2E2E2E2E2E2E2E2E2E2E2E2E2E2E2E2E2E2E2E2E2E228E2E2E2E2E2E2E2E2E2E2BEE2E2E2E2E2E2E2E2E2E2E2BEE2F5E2BEF5EFBEE2F5E2BEE2E2E2E2E2E2E2E2E2BEE2E2E2E2E2E2E2E2E2E2E2E2E2E2E2E2E2E2E2
310
E2E2E2E2E2E2E2E2E228E2E2E2E2E2E2E2E2E2E2E2E228E2E2E2E2E2E2E2E2E2E2E2E2E2E228E2E2E2E2E2E2E2E2E2E2E2E2E2E2E2E2E2E2E2E2E2E2E2E228E2E2E2E2E2E2E2E2E2E2E2E2E2E2E2E2E2E2E2E2E2E2E2E2E2E2E2E2E2E2E2E2E2E2E2E2E2E2E2E2E2E2E2E2E2E2E2E2E2E2E2E2E228E2E2E2E2E2E2E2E2E2E2
310
BEE2E2E2E2E2E2E2E2E2E2E2BEE2F5E2BEF5EFBEE2F5BEBEE2E2E2E2E2E2E2E2E2BEE2E2E2E2E2E2E2E2E2E2E2E2E2E2E2E2E2E2E2E2E2E2E2E2E2E2E2E228E2E2E2E2E2E2E2E2E2E2E2E228E2E2E2E2E2E2E2E2E2E2E2E2E2E2282828282828282828282828DCDCDC2828282828282828282828E2E2E2E2E2E2E2E2E2E2E2
310
E2E2E2E2E2E2E2E2E2E2E2E2E2E2E2E2E2E2E2E2E2E2E2E2E2E2E2E2E2E2E2E2E2E2E2E2E2E2E2E2E2E228E2E2E2E2E2E2E2E2E2E2BEE2E2E2E2E2E2E2E2E2E2E2BEBEF5E2BEF5EFBEE2F5BEBEE2E2E2E2E2E2E2E2E2BEE2E2E2E2E2E2E2E2E2E2E2E2E2E2E2E2E2E2E2E2E2E2E2E2E2E2E2E228E2E2E2E2E2E2E2E2E2E2E2
310
E228E2E2E2E2E2E2E2E2E2E2E2E2E2E228E2E2E2E2E2E2E2E2E2E2DCDCDCDCE2E2E2E2E2E2E2E2E2E228E2E2E2E2E2E2E2E2E2E2E2E2E2E2E2E2E2E2E2E2E2E2E2E2E2E2E2E2E2E2E2E2E2E2E2E2E2E2E2E2E2E2E2E2E2E2E2E2E2E2E2E2E228E2E2E2E2E2E2E2E2E2E2BEE2E2E2E2E2E2E2E2E2E2E2BEBEF5E2BEF5EFBEE2
310
F5E2BEE2E2E2E2E2E2E2E2E2BEE2E2E2E2E2E2E2E2E2E2E2E2E2E2E2E2E2E2E2E2E2E2E2E2E2E2E2E228E2E2E2E2E2E2E2E2E2E2E2E228E2E2E2E2E2E2E2E2E2E2E2E2E2E228E2E2E2E2E2E2E2E2E2E2E2DCDCDCE2E2E2E2E2E2E2E2E2E228E2E2E2E2E2E2E2E2E2E2E2E2E2E2E2E2E2E2E2E2E2E2E2E2E2E2E2E2E2E2E2E2
310
E2E2E2E2E2E2E2E2E2E2E2E2E2E2E2E2E2E2E2E2E228E2E2E2E2E2E2E2E2E2E2BEE2E2E2E2E2E2E2E2E2E2E2BEE2F5E2BEF5EFBEE2F5E2BEE2E2E2E2E2E2E2E2E2BEE2E2E2E2E2E2E2E2E2E2E2E2E2E2E2E2E2E2E2E2E2E2E2E2E2E2E2E228E2E2E2E2E2E2E2E2E2E2E2E228E2E2E2E2E2E2E2E2E2E2E2E2E2E228E2E2E2E2
310
E2E2E2E2E2E2E2E2E2E2E2E2E2E2E2E2E2E2E2E228E2E2E2E2E2E2E2E2E2E2E2E2E2E2E2E2E2E2E2E2E2E2E2E2E2E2E2E2E2E2E2E2E2E2E2E2E2E2E2E2E2E2E2E2E2E2E2E2E2E2E2E2E228E2E2E2E2E2E2E2E2E2E2BEE2E2E2E2E2E2E2E2E2E2E2BEE2F5E2BEF5EFBEE2F5E2BEE2E2E2E2E2E2E2E2E2BEE2E2E2E2E2E2E2E2
310
E2E2E2E2E2E2E2E2E2E2E2E2E2E2E2E2E2E2E2E228E2E2E2E2E2E2E2E2E2E2E2E228E2E2E2E2E2E2E2E2E2E2E2E2E2E228E2E2E228282828282828282828282828282828282828282828E2E2E2E2E2E2E2E2E2E2E2E2E2E2E2E2E2E2E2E2E2E2E2E2E2E2E2E2E2E2E2E2E2E2E2E2E2E2E2E2E2E2E2E2E2E2E2E2E2E2E2E2E2
310
28E2E2E2E2E2E2E2E2E2E2BEE2E2E2E2E2E2E2E2E2E2E2BEE2F5E2BEF5EFBEE2F5E2BEE2E2E2E2E2E2E2E2E2BEE2E2E2E2E2E2E2E2E2E2E2E2E2E2E2E2E2E2E2E2E2E2E2E2E2E2E2E228E2E2E2E2E2E2E2E2E2E2E2E228E2E2E2E2E2E2E2E2E2E2E2E2E2E228E2E2E228E2E2E2E2E2E2E2E2E2DCDCDCE2E2E2E2E2E2E2E228
310
E2E2E2E2E2E2E2E2E2E2E2E2E2E2E2E2E2E2E2E2E2E2E2E2E2E2E2E2E2E2E2E2E2E2E2E2E2E2E2E2E2E2E2E2E2E2E2E2E2E2E2E2E228E2E2E2E2E2E2E2E2E2E2BEE2E2E2E2E2E2E2E2E2E2E2BEE2F5E2BEF5EFBEE2F5E2BEE2E2E2E2E2E2E2E2E2BEE2E2E2E2E2E2E2E2E2E2E2E2E2E2E2E2E2E2E2E2E2E2E2E2E2E2E2E228
310
E2E2E2E2E2E2E2E2E2E2E2E228E2E2E2E2E2E2E2E2E2E2E2E2E2E228E2E2E228E2E2E2E2E2E2E2E2E2DCDCDCE2E2E2E2E2E2E2E228E2E2E2E2E2E2E2E2E2E2E2E2E2E2E2E2E2E2E2E2E2E2E2E2E2E2E2E2E2E2E2E2E2E2E2E2E2E2E2E2E2E2E2E2E2E2E2E2E2E2E2E2E228E2E2E2E2E2E2E2E2E2E2BEE2E2E2E2E2E2E2E2E2
310
E2E2BEE2F5E2BEF5EFBEE2F5E2BEE2E2E2E2E2E2E2E2E2BEE2E2E2E2E2E2E2E2E2E2E2E2E2E2E2E2E2E2E2E2E2E2E2E2E2E2E2E228E2E2E2E2E2E2E2E2E2E2E2E228E2E2E2E2E2E2E2E2E2E2E2E2E2E228E2E2E228E2E2E2E2E2E2E2E2E2E2E2E2E2E2E2E2E2E2E2E228E2E2E2E2E2E2E2E2E2E2E2E2E2E2E2E2E2E2E2E2E2
310
E2E2E2E2E2E2E2E2E2E2E2E2E2E2E2E2E2E2E2E2E2E2E2E2E2E2E2E2E2E2E2E228E2E2E2E2E2E2E2E2E2E2BEE2E2E2E2E2E2E2E2E2E2E2BEE2F5E2BEF5EFBEE2F5E2BEE2E2E2E2E2E2E2E2E2BEE2E2E2E2E2E2E2E2E2E2E2E2E2E2E2E2E2E2E2E2E2E2E2E2E2E2E2E228E2E2E2E2E2E2E2E2E2E2E2E228E2E2E2E2E2E2E2E2
310
E2E2E2E2E2E228E2E2E228E2E2E2E2E2E2E2E228282828282828282828282828E2E2E2E2E2E2E2E2E2E2E2E2E2E2E2E2E2E2E2E2E2E2E2E2E2E2E2E2E2E2E2E2E2E2E2E2E2E2E2E2E2E2E2E2E2E2E2E2E2E2E2E2E228E2E2E2E2E2E2E2E2E2E2BEE2E2E2E2E2E2E2E2E2E2E2BEE2F5E2BEF5EFBEE2F5E2BEE2E2E2E2E2E2E2
310
E2E2BEE2E2E2E2E2E2E2E2E2E2E2E2E2E2E2E2E2E2E2E2E2E2E2E2E2E2E2E228E2E2E2E2E2E2E2E2E2E2E2E228E2E2E2E2E2E2E2E2E2E2E2E2E2E228E2E2E228E2E2E2E2E2E2E2E228E2E2E2E2DCDCDCE2E2E2E228E2E2E2E2E2E2E2E2E2E2E2E2E2E2E2E2E2E2E2E2E2E2E2E2E2E2E2E2E2E2E2E2E2E2E2E2E2E2E2E2E2E2
310
E2E2E2E2E2E2E2E2E2E2E228E2E2E2E2E2E2E2E2E2E2BEE2E2E2E2E2E2E2E2E2E2E2BEE2F5E2BEF5EFBEE2F5BEBEE2E2E2E2E2E2E2E2E2BEE2E2E2E2E2E2E2E2E2E2E2E2E2E2E2E2E2E2E2E2E2E2E2E2E2E2E2E228E2E2E2E2E2E2E2E2E2E2E2E228E2E2E2E2E2E2E2E2E2E2E2E2E2E228E2E2E228E2E2E2E2E2E2E2E228E2
310
E2E2E2DCDCDCE2E2E2E228E2E2E2E2E2E2E2E2E2E2E2E2E2E2E2E2E2E2E2E2E2E2E2E2E2E2E2E2E2E2E2E2E2E2E2E2E2E2E2E2E2E2E2E2E2E2E2E2E2E2E2E2E228E2E2E2E2E2E2E2E2E2E2BEE2E2E2E2E2E2E2E2E2E2E2BEBEF5E2BEF5EFBEE2F5E2BEE2E2E2E2E2E2E2E2E2BEE2E2E2E2E2E2E2E2E2E2E2E2E2E2E2E2E2E2
310
E2E2E2E2E2E2E2E2E2E228E2E2E2E2E2E2E2E2E2E2E2E228E2E2E2E2E2E2E2E2E2E2E2E2E2E228E2E2E228E2E2E2E2E2E2E2E228E2E2E2E2E2E2E2E2E2E2E228E2E2E2E2E2E2E2E2E2E2E2E2E2E2E2E2E2E2E2E2E2E2E2E2E2E2E2E2E2E2E2E2E2E2E2E2E2E2E2E2E2E2E2E2E2E2E2E2E2E2E2E2E228E2E2E2E2E2E2E2E2E2
310
E2BEE2E2E2E2E2E2E2E2E2E2E2BEE2F5E2BEF5EFBEE2F5E2BEE2E2E2E2E2E2E2E2E2BEE2E2E2E2E2E2E2E2E2E2E2E2E2E2E2E2E2E2E2E2E2E2E2E2E2E2E2E228E2E2E2E2E2E2E2E2E2E2E2E228E2E2E2E2E2E2E2E2E2E2E2E2E2E228E2E2E228E2E2E2E2E2E2E2E228E2E2E2E2E2E2E2E2E2E2E228E2E2E2E2E2E2E2E2E2E2
310
E2E2E2E2E2E2E2E2E2E2E2E2E2E2E2E2E2E2E2E2E2E2E2E2E2E2E2E2E2E2E2E2E2E2E2E2E2E2E2E2E2E2E228E2E2E2E2E2E2E2E2E2E2BEE2E2E2E2E2E2E2E2E2E2E2BEE2F5E2BEF5EFBEE2F5E2BEE2E2E2E2E2E2E2E2E2BEE228282828282828282828282828282828282828282828282828282828F5F5F5F5F5F5F5F5F5F5
310
F5F528F5F5F5F5F5F5F5F5F5F5F5F5F5F528F5F5F528F5F5F5F5F5F5F5F528F5F5F5F5F5F5F5F5F5F5F528F5F5F5F5F5F5F5F5F5F5F5F5F5F5F5F5F5F5F5F5F5F5F5F5F5F5F5F5F5F5F5F5F5F5F5F5F5F5F5F5F5F5F5F5F5F5F5F5F5F5F5F5F5282828282828E2E2E2E2E2BEE2E2E2E2E2E2E2E2E2E2E2BEE2F5E2BEF5EFBE
310
E2F5E2BEE2E2E2E2E2E2E2E2E2BEE2E228E2E2E228E2E2E228E2E2E2E2E2E2E2E2E2E2E2E2E2E2E2E2E2F5E2E2E2E2E2E2E2E2E2E2E2E228E2E2E2E2E2E2E2E2E2E2E2E2E2E228E2E2E228E2E2E2E2E2E2E2E228E2E2E2E2E2E2E2E2E2E2E22DE2E2E2E2E2E2E2E2E2E2E2E2E2E2E2E2E2E2E2E2E2E2E2E2E2E2E2E2E2E2E2
310
E2E2E2E2E2E2E2E2E2E2E2E2E2E2E2E2E2E2E2E2E2E2F5E2E2E2E228E2E2E2E2E2BEE2E2E2E2E2E2E2E2E2E2E2BEE2F5E2BEF5EFBEE2F5E2BEE2E2E2E2E2E2E2E2E2BEE2E228E2E2E228E2E2E228E2E2E2E2E2E2E2E2E2E2E2E2E2E2E2E2E2F5E2E2E2E2E2E2E2E2E2E2E2E228E2E2E2E2E2E2E2E2E2E2E2E2E2E228E2E2E2
310
28E2E2E2E2E2E2E2E228E2E2E2E2E2E2E2E2E2E2E22DE2E2E2E2E2E2E2E2E2E2E2E2E2E2E2E2E2E2E2E2E2E2E2E2E2E2E2E2E2E2E2E2E2E2E2E2E2E2E2E2E2E2E2E2E2E2E2E2E2E2E2E2E2F5E2E2E2E228E2E2E2E2E2BEE2E2E2E2E2E2E2E2E2E2E2BEE2F5E2BEF5EFBEE2F5E2BEE2E2E2E2E2E2E2E2E2BEE2E228E2E2E228
310
E2E2E228E2E2E2E2E2E2E2E2E2E2E2E2E2E2E2E2E2F5E2E2E2E2E2E2E2E2E2E2E2E228E2E2E2E2E2E2E2E2E2E2E2E2E2E228E2E2E228E2E2E2E2E2E2E2E228E2E2E2E2E2E2E2E2E2E2E22DE2E2E2E2E2E2E2E2E2E2E2E2E2E2E2E2E2E2E2E2E2E2E2E2E2E2E2E2E2E2E2E2E2E2E2E2E2E2E2E2E2E2E2E2E2E2E2E2E2E2E2E2
310
E2F5E2E2E2E228E2E2E2E2E2BEE2E2E2E2E2E2E2E2E2E2E2BEE2F5E2BEF5EFBEE2F5E2BEE2E2E2E2E2E2E2E2E2BEE2E228E2E2E228E2E2E228E2E2E2E2E2E2E2E2E2E2E2E2E2E2E2E2E2F5E2E2E2E2E2E2E2E2E2E2E2E228E2E2E2E2E2E2E2E2E2E2E2E2E2E228E2E2E228E2E2E2E2E2E2E2E228E2E2E2E2E2E2E2E2E2E2E2
310
2DE2E2E2E2E2E2E2E2E2E2E2E2E2E2E2E2E2E2E2E2E2E2E2E2E2E2E2E2E2E2E2E2E2E2E2E2E2E2E2E2E2E2E2E2E2E2E2E2E2E2E2E2E2F5E2E2E2E228E2E2E2E2E2BEE2E2E2E2E2E2E2E2E2E2E2BEE2F5E2BEF5EFBEE2F5E2BEE2E2E2E2E2E2E2E2E2BEE2E228E2E2E228E2E2E228E2E2E2E2E2E2E2E2E2E2E2E2E2E2E2E2E2
310
F5E2E2E2E2E2E2E2E2E2E2E2E228E2E2E2E2E2E2E2E2E2E2E2E2E2E228E2E2E228E2E2E2E2E2E2E2E228E2E2E2E2E2E2E2E2E2E2E22DE2E2E2E2E2E2E2E2E2E2E2E2E2E2E2E2E2E2E2E2E2E2E2E2E2E2E2E2E2E2E2E2E2E2E2E2E2E2E2E2E2E2E2E2E2E2E2E2E2E2E2E2E2F5E2E2E2E228E2E2E2E2E2BEE2E2E2E2E2E2E2E2
310
E2E2E2BEE2F5E2BEF5EFBEE2F5BEBEE2E2E2E2E2E2E2E2E2BEE2E228E2E2E228E2E2E228E2E2E2E2E2E2E2E2E2E2E2E2E2E2E2E2E2F5E2E2E2E2E2E2E2E2E2E2E2E228E2E2E2E2E2E2E2E2E2E2E2E2E2E228E2E2E228E2E2E2E2E2E2E2E228E2E2E2E2E2E2E2E2E2E2E22DE2E2E2E2E2E2E2E2E2E2E2E2E2E2E2E2E2E2E2E2
310
E2E2E2E2E2E2E2E2E2E2E2E2E2E2E2E2E2E2E2E2E2E2E2E2E2E2E2E2E2E2E2E2E2F5E2E2E2E228E2E2E2E2E2BEE2E2E2E2E2E2E2E2E2E2E2BEBEF5E2BEF5EFBEE2F5BEBEE2E2E2E2E2E2E2E2E2BEE2E228E2E2E228E2E2E228E2E2E2E2E2E2E2E2E2E2E2E2E2E2E2E2E2F5E2E2E2E2E2E2E2E2E2E2E2E228E2E2E2E2E2E2E2
310
E2E2E2E2E2E2E228E2E2E228E2E2E2E2E2E2E2E228F5F5F5F5F5F5F5F5F5F5F5F5F5F5F5F5F5F5F5F5F5F5F5F528282828282828E2E2E2E2E2E2E2E2E2E2E2E2E2E2E2E2E2E2E2E2E22DE2E2E2E2E2E2E2E2E2E2E2E2F5E2E2E2E228E2E2E2E2E2BEE2E2E2E2E2E2E2E2E2E2E2BEBEF5E2BEF5EFBEE2F5BEBEE2E2E2E2E2E2
310
E2E2E2BEE2E228E2E2E228E2E2E228E2E2E2E2E2E2E2E2E2E2E2E2E2E2E2E2E2F5E2E2E2E2E2E2E2E2E2E2E2F5F5F5E2E2E2E2E2E2E2E2E2E2E2E2E228E2E2E228E2E2E2E2E2E2E2E2F5E2E2E2E2E2E2E2E2E2E2E22DE2E2E2E2E2E2E2E2E2E2E2E2F5E2E2E2E22828E2E2E2E2E2E2E2E2E2E2E2E2E2E2E2E2E2E2E2E2F52D
310
28E2E2E2E2E2E2E2E2E2E2E2F5E2E2E2E228E2E2E2E2E2BEE2E2E2E2E2E2E2E2E2E2E2BEBEF5E2BEF5EFBEE2F5E2BEE2E2E2E2E2E2E2E2E2BEE2E228E2E2E228E2E2E228E2E2E22828282828282828282828282828282828282828282828282828F52DF52DE2E2E2E2E2E2E2E2E2E2E2E228E2E2E228E2E2E2E2E2E2E2E2F5
310
E2E2E2E2E2E2E2E2E2E2E22DE2E2E2E2E2E2E2E2E2E2E2E2F5E2E2E2E228E2E2E2E2E2E2E2E2E2E2E2E2E2E2E2E2E2E2E2E22D282D2D2DE2E2E2E2E2E2E2E2E2E2F5E2E2E2E228E2E2E2E2E2BEE2E2E2E2E2E2E2E2E2E2E2BEE2F5E2BEF5EFBEE2F5E2BEE2E2E2E2E2E2E2E2E2BEE2E228E2E2E228E2E2E228E2E2E22828E2
310
E2E2E2E2E2E2E2E2E2E2E2F5E2E2E2E2E2E2E2E2E2E2E2E2F5E2E2E2E2E2E2E2E2E2E2E2E2E2E228E2E2E228E2E2E2E2E2E2E2E2F5E2E2E2E2E2E2E2E2E2E2E22DE2E2E2E2E2E2E2E2E2E2E2E2F5E2E2E2E228E2E2E2E2E2E2E2E2E2E2E2E2E2E2E2E2E2E2E2E228282DE2E2E2E2E2E2E2E2E2E2E2E2F5E2E2E2E228E2E2E2
310
E2E2BEE2E2E2E2E2E2E2E2E2E2E2BEE2F5E2BEF5EFBEE2F5E2BEE2E2E2E2E2E2E2E2E2BEE2E228E2E2E228E2E2E228E2E2E2E228E2E2E2E2E2E2E2E2E2E2E2E2F5E2E2E2E2E2E2E2E2E2E2E2E2E2E2E2E2E2E2E2E2E2E2E2E2E2E2E228E2E2E228E2E2E2E2E2E2E2E2F5E2E2E2E2E2E2E2E2E2E2E22DE2E2E2E2E2E2E2E2E2
310
E2E2E2F5E2E2DCDCDCE2E2E2E2E2E2E2E2E2E2E2E2E2E2E2E2E2E2E228E2E2E2E2E2E2E2E2E2E2E2E2E2E2E2F5E2E2DCE228E2E2E2E2E2BEE2E2E2E2E2E2E2E2E2E2E2BEE2F5E2BEF5EFBEE2F5E2BEE2E2E2E2E2E2E2E2E2BEE2E228E2E2E228E2E2E228E2E2E2E228E2E2E2E2E2E2E2E2E2E2E2E2F5E2E2E2E2E2E2E2E2E2
310
E2E2E2E2E2E2E2E2E2E2E2E2E2E2E2E2E2E228E2E2E228E2E2E2E2E2E2E2E2F5E2E2E2E2E2E2E2E2E2E2E22DE2E2E2E2E2E2E2E2E2E2E2E2F5E2E2DCDCDCE2E2E2E2E2E2E2E2E2E2E2E2E2E2E228282828E2E2E2E2E2E2E2E2E2E2E2E2E2E2E2E2F5E2E2DCDC28E2E2E2E2E2BEE2E2E2E2E2E2E2E2E2E2E2BEE2F5E2BEF5EF
310
BEE2F5E2BEE2E2E2E2E2E2E2E2E2BEE2E228E2E2E228E2E2E228E2E2E2E228E2E2E2E2E2E2E2E2E2E2E2E2F5E2E2E2E2E2E2E2E2E2E2E2E2E2E2E2E2E2E2E2E2E2E2E2E2E2E2E228E2E2E228E2E2E2E2E2E2E2E2F5E2E2E2E2E2E2E2E2E2E2E22DE2E2E2E2E2E2E2E2E2E2E2E2F5E2E2DCDCDCE2E2E2E2E2E2E2E2E2E2E2E2
310
E2E2E2DCDCDCDCE2E2E2E2E2E2E2E2E2E2E2E2E2E2E2E2F5E2E2DCDC28E2E2E2E2E2BEE2E2E2E2E2E2E2E2E2E2E2BEE2F5E2BEF5EFBEE2F5E2BEE2E2E2E2E2E2E2E2E2BEE2E228E2E2E228E2E2E228E2E2E2E228E2E2E2E2E2E2E2E2E2E2E2E2F5E2E2E2E2E2E2E2E2E2E2E2E2E2E2E2E2E2E2E2E2E2E2E2E2E2E2E228E2E2
310
E228E2E2E2E2E2E2E2E2F5E2E2E2E2E2E2E2E2E2E2E22DE2E2E2E2E2E2E2E2E2E2E2E2F5E2E2E2E228E2E2E2E2E2E2E2E2E2E2E2E2E2E2E2DCDCDCDCE2E2E2E2E2E2E2E2E2E2E2E2E2E2E2E2F5E2E2E2E228E2E2E2E2E2BEE2E2E2E2E2E2E2E2E2E2E2BEE2F5E2BEF5EFBEE2F5E2BEE2E2E2E2E2E2E2E2E2BEE2E228E2E2E2
310
28E2E2E228E2E2E2E228E2E2E2E2E2E2E2E2E2E2E2E2F5E2E2E2E2E2E2E2E2E2E2E2E2E2E2E2E2E2E2E2E2E2E2E2E2E2E2E228E2E2E228E2E2E2E2E2E2E2E2F5E2E2E2E2E2E2E2E2E2E2E22DE2E2E2E2E2E2E2E2E2E228E2F5E2E2E2E228E2E2E2E2E2E2E2E2E2E2E2E2E2E2E2E2E2E2E2E2E2E2E2E2E2E2E2E2E2E2E2E2E2
310
E2E2F5E2E2E2E228E2E2E2E2E2BEE2E2E2E2E2E2E2E2E2E2E2BEE2F5E2BEF5EFBEE2F5E2BEE2E2E2E2E2E2E2E2E2BEE2E228E2E2E228E2E2E228E2E2E2E228E2E2E2E2E2E2E2E2E2E2E2E2F5E2E2E2E2E2E2E2E2E2E2E2E2E2E2E2E2E2E2E2E2E2E2E2E2E2E2E228E2E2E228E2E2E2E2E2E2E2E2F5E2E2E2E2E2E2E2E2E2E2
310
E22DE2E2E2E2E2E2E2E2E2E2E2E2F5E2E2E2E22828E2E2E2E2E2E2E2E2E2E2E2E2E2E2E2E2E2E2E2E2E2E2E2E2E2E2E2E2E2E2E2E2E2E2F5E2E2E2E228E2E2E2E2E2BEE2E2E2E2E2E2E2E2E2E2E2BEE2F5E2BEF5EFBEE2DCDCDCE2E2E2E2E2E2E2E2E2BEE2E228E2E2E228E2E2E228E2E2E2E228E2E2E2E2E2E2E2E2E2E2E2
310
E2F5E2E2E2E2E2E2E2E2E2E2E2E2E2E2E2E2E2E2E2E2E2E2E2E2E2E2E228E2E2E228E2E2E2E2E2E2E2E2E2F5F5F5F5F5F5F5F5F5F5F5F5F5F5F5F5F5F5F5F5F5F5F5F528282828282828E2E2E2E2E2E2E2E2E2E2E2E2E2E2E2E2E2E2E2E2E2E2E2E2E2E2E2E2E2E2E2E2E2E2F5E2E2E2E228E2E2E2E2E2BEE2E2E2E2E2E2E2
310
E2E2E2E2DCDCDCE2BEF5EFBEE2F5E2BEE2E2E2E2E2E2E2E2E2BEE2E228E2E2E228E2DCDCDCE2E2E2E228E2E2E2E2E2E2E2E2E2E2E2E2F5E2E2E2E2E2E2E2E2E2E2E2E2E2E2E2E2E2E2E2E2E2E2E2E2E2E2E228E2E2E228E2E2E2E2E2E2E2E2E2E2E2E2E2E2E2E2E2E2E2E22DE2E2E2E2E2E2E2E2E2E2E2E228E2E2E2E2E2E2
310
E2E2E2E2E2E2E2E2E2E2E2E2E2E2E2E2E2E2E2E2E2E2E2E2E2E2E2E2E2E2E2E2E2E2F5E2E2E2E228E2E2E2E2E2BEE2E2E2E2E2E2E2E2E2E2E2BEE2F5E2BEF5EFBEE2F5E2BEE2E2E2E2E2E2E2E2E2BEE2E228E2E2E228E2DCDCDCE2E2E2E228E2E2E2E2E2E2E2E2E2E2E2E2F5E2E2E2E2E2E2E2E2E2E2E2E2E2E2E2E2E2E2E2
310
E2E2E2E2E2E2E2E228E2E2E228E2E2E2E2E2E2E2E2E2E2E2E2E2E2E2E2E2E2E2E22DE2E2E2E2E2E2E2E2E2E2E2E2E228282828E2E2E2E2E2E2E2E2E2E2E2E2E2E2E2E2E2E2E2E2E2E2E2E2E2E2E2E2E2E2E2E2E2E2E2E2F5E2E2E2E228E2E2E2E2E2BEE2E2E2E2E2E2E2E2E2E2E2BEE2F5E2BEF5EFBEE2F5E2BEE2E2E2E2E2
310
E2E2E2E2BEE2E228E2DCDC28E2DCDCDCE2E2E2E228E2E2E2E2E2E2E2E2E2E2E2E2F5E2E2E2E2E2E2E2E2E2E2E2E2E2E2E2E2E2E2E2E2E2E2E2E2E2E2E228E2E2E228E2E2E2E2E2E2E2E2E2E2E2E2E2E2E2E2E2E2E2E22DE2E2E2E2E2E2E2E2E2E2E2E2E2E2DCDCDCE2E2E2E2E2E2E2E2E2E2E2E2E2E2E2E2E2E2E2E2E2E2E2
310
E2E2E2E2E2E2E2E2E2E2E2E2E2F5E2E2E2E228E2E2E2E2E2BEE2E2E2E2E2E2E2E2E2E2E2BEE2F5E2BEF5EFBEE2F5E2BEE2E2E2E2E2E2E2E2E2BEE2E228E2DCDC28E2E2E228E2E2E2E228E2E2E2E2E2E2E2E2E2E2E2E2F5E2E2E2E2E2E2E2E2E2E2E2E2E2E2E2E2E2E2E2E2E2E2E2E2E2E2E228E2E2E228E2E2E2E2E2E2E2E2
310
E2E2E2E2E2E2E2E2E2E2E2E22DE2E2E2E2E2E2E2E2E2E2E2E2E2E2DCDCDCE2E2E2E2E2E2E2E2E2E2E2E2E2E2E2E2E2E2E2E2E2E2E2E2E2E2E2E2E2E2E2E2E2E2E2E2F5E2E2E2E228E2E2E2E2E2BEE2E2E2E2E2E2E2E2E2E2E2BEE2F5E2BEF5EFBEE2F5E2BEE2E2E2E2E2E2E2E2E2BEE2E228E2DCDC28E2E2E228E2E2DCE228
310
E2E2E2E2E2E2E2E2E2E2E2E2F5E2E2E2E2E2E2E2E2E2E2E2E2E2E2E2E2E2E2E2E2E2E2E2E2E2E2E228E2E2E228E2E2E2E2E2E2E2E2E2E2E2E2E2E2E2E2E2E2E2E22DE2E2E2E2E2E2E2E2E2E2E2E2E2E2E2E2E2E2E2E2E22DE2E2E2E2E2E2E2E2E2E2E2E2E2E2E2E2E2E2E2E2E2E2E2E2E2E2E2E2E2E2E2F5E2E2E2E228E2E2
310
E2E2E2BEE2E2E2E2E2E2E2E2E2E2E2BEE2F5E2BEF5EFBEE2F5E2BEE2E2E2E2E2E2E2E2E2BEE2E228E2DCDC28E2E2E228E2E2DCDC28E2E22828282828282828282828282828282828282828282828282828282828282828282828282828282828F52DF52DE2E2E2E2E2E2E2E2E2E2E2E2E2E2E2E2E2E22DE2E2E2E2E2E2E2E2
310
E2E2E2E2E2E2E2E2E2E2E22D2D2D2DE2E2E2E2E2E2E2E2E2E2E2E2E2E2E2E2E2E2E2E2E2E2E2E2E2E2E2E2E2E2F5E2E2E2E228E2E2E2E2E2BEE2E2E2E2E2E2E2E2E2E2E2BEE2F5E2BEF5EFBEE2F5E2BEE2E2E2E2E2E2E2E2E2BEE2E228E2E2E228E2E2E228E2E2DCDC28E2E2E228E2E2E2E2E2E2E2E2F5E2E2E2E2E2E2E2E2
310
E2E2E2E2E2E2E2E2E2E2E2E2E2E2E2E2E2E2E228E2E2F52DF5E2E2E2E2E2E2E2E2E2E2E2E2E2E2E2E2E2E2E22DE2E2E2E2E2E2E2E2E2E2E2E2E2E2E2E2E2E2E2E2F52DE2E2E2E2E2E2E2E2E2E2E2E2E2E2E2E2E2E2E2E2E2E2E2E2E2E2E2E2E2E2E2F5E2E2E2E228E2E2E2E2E2BEE2E2E2E2E2E2E2E2E2E2E2BEE2F5E2BEF5
310
EFBEE2F5E2BEE2E2E2E2E2E2E2E2E2BEDCDC28E2E2E228E2E2E228E2E2DCDC28E2E2E228E2E2E2E2E2E2E2E2F5E2E2E2E2E2E2E2E2E2E2E2E2E2E2E2E2E2E2E2E2E2E2E2E2E2E2E228E2E2E2F5E2E2E2E2E2E2E2E2E2E2E2E2E2E2E2E2E2E2E2E22DE2E2E2E2E2E2E2E2E2E2E2E2E2E2E2E2E2E2E2E2E22DE2E2E2E2E2E2E2
310
E2E2E2E2E2E2E2E2E2E2E2E2E2E2E2E2E2E2E2E2E2E2F5F5282828282828E2E2E2E2E2BEE2E2E2E2E2E2E2E2E2E2E2BEE2F5E2BEF5EFBEE2F5BEBEE2E2E2E2E2E2E2E2E2BEDCDC28E2E2E228E2E2E228E2E2E2E228E2E2E228E2E2E2E2E2E2E2E2F5E2E2E2E2E2E2E2E2E2E2E2E2E2E2E2E2E2E2E2E2E2E2E2E2E2E2E228E2
310
E2E2E2E2E2E2E2E2E2E2E2E2E2E2E2E2E2E2E2E2E2E2E22DE2E2E2E2E2E2E2E2E2E2E2E2E2E2E2E2E2E2E2E2E2E2E2E2E22DE2E2E2E2E2E2E2E2E2E2E2E2E2E2E2E2E2E2E2E2E2F5F5F5F5E2E228E2E2E2E228E2E2E2E2E2BEE2E2E2E2E2E2E2E2E2E2E2BEBEF5E2BEF5EFBEE2F5E2BEE2E2E2E2E2E2E2E2E2BEDCDC28E2E2
310
E228E2E2E228E2E2E2E228E2E2E228E2E2E2E2E2E2E2E2F5E2E2E2E2E2E2E2E2E2E2E2E2E2E2E2E2E2E2E2E2E2E2E2E2E2E2F5F5F5E2E2E2E2E2E2E2E2E2E2E2E2282828282828282828282828E2E2E2E2E2E2E2E2E2E2E2E2E2E2E2E2E2E2E2E2E2E2E2E2F52DF5E2E2E2E2E2E2E2E2E2E2E2E2E2E2E2E2F5F5F5F5E2E2E2
310
E2E2E228E2E2E2E228E2E2E2E2E2BEE2E2E2E2E2E2E2E2E2E2E2BEBEF5E2BEF5EFBEE2F5BEBEE2E2E2E2E2E2E2E2E2BEE2DC28E2E2E228E2E2E228E2E2E2E228E2E2E228E2E2E22828282828282828282828282828282828282828282828282828282828282828F52DF52DE2E2E2E2E2E2E2E2E2E2E2DCDCE2E22828E2DCDC
310
DCE228E2E2E2E2E2E2E2E2E2E2E2E2E2E2E2E2E2E2E2E2E2E2E22D2D2D2D2DE2E2E2E2E2E2E2E2E2E2E2F5F5F5F5E2E2E2E2E2E2E2E2E2E228E2E2E2E228E2E2E2E2E2BEE2E2E2E2E2E2E2E2E2E2E2BEBEF5E2BEF5EFBEE2F5E2BEE2E2E2E2E2E2E2E2E2BEE2E228E2E2E228E2E2E228E2E2E2E228E2E2E228E2E2E228E2E2
310
E2E2F5E2E2E2E2E2E2E2E2E2E2E2E2E2E2E2E2E2E2E2E2E2E2E2E2E2E2F5F5F5E2E2E2E2E2E2E2E2E2E2E2E2E2DCE2E22828E2DCDCDCE228E2E2E2E2E2E2E2E2E2E2E2E2E2E2E2E2E2E2E2E2E2E2E2E2F52DF5E2E2E2E2E2E2E2E2F5F5F5F5E2E2E2E2E2E2E2E2E2E2E2E2E2E228E2E2E2E228E2E2E2E2E2BEE2E2E2E2E2E2
310
E2E2E2E2E2BEE2F5E2BEF5EFBEE2F5E2BEE2E2E2E2E2E2E2E2E2BEE2E228E2E2E228E2E2E228E2E2E2E228E2DCDC28E2E2E228E2E2E2E2F5E2E2E2E2E2E2E2E2E2E2E2E2E2E2E2E2E2E2E2E2E2E2E2E2E2E2E22DE2E2E2E2E2E2E2E2E2E2E2E2E2E2E2E2E22828E2E2E2E2E228E2E2E2E2E2E2E2E2E2E2E2E2E2E2E2E2E2E2
310
E2E2E2E2E2E2E22DE2E2E2E2E2F5F5F5F5E2E2E2E2E2E2E2E2E2E2E2E2E2E2E2E2E2E228E2E2DCDC28E2E2E2E2E2BEE2E2E2E2E2E2E2E2E2E2E2BEE2F5E2BEF5EFBEE2F5E2BEE2E2E2E2E2E2E2E2E2BEE2E228E2E2E228E2E2E228E2E2E2E228E2DCDC28E2E2E228E2E2E2E2F5E2E2E2E2E2E2E2E2E2E2E2E2E2E2E2E2E2E2
310
E2E2E2E2E2E2E2E2E2E2E2E2E2E2E2E2E2E2E2E2E2E2E2E2E2E2E22828E2E2E2E2E228E2E2E2E2E2E2E2E2E2E2E2E2E2E2E2E2E2E2E2E2E2E2E2E2E2E2E2F5F5F5F5E2E2E2E2E2E2E2E2E2E2E2E2E2E2E2E2E2E2E2E2E2E228E2E2DCDC28E2E2E2E2E2BEE2E2E2E2E2E2E2E2E2E2E2BEE2F5E2BEF5EFBEE2F5E2BEE2E2E2E2
310
E2E2E2E2E2BEE2E228E2E2E228E2E2E228E2E2E2E228E2DCDC28E2DCDC28E2E2E2E2F5E2E2E2E2E2E2E2E2E2E2E2E2E2E2E2E2E2E2E2E2E2E2E2E2E2E2E2E2E2E2E2E2E2E2E2E2E2E2E2E2E2E2E2E2E22828E2E2E2E2E228E2E2E2E2E2E2E2E2E2E2E2E2E2E2E2E2E2E2E2E2E2E2E2F5F5F5F5E2E2E2E2E2E2E2E2E2E2E2E2
310
E2E2E2E2E2E2E2E2E2E2E2E2E2E228E2E2E2E228E2E2E2E2E2BEE2E2E2E2E2E2E2E2E2E2E2BEE2F5E2BEF5EFBEE2F5E2BEE2E2E2E2E2E2E2E2E2BEE2E228E2E2E228E2E2E228E2E2E2E228E2E2E228E2DCDC28E2E2E2E2F5E2E2E2E2E2E2E2E2E2E2E2E2E2E2E2E2E2E2E2E2E2E2E2E2E2E2E2E2E2E2E2E2E2E2E2E2E2E228
310
E2E2E2E2E2E22828E2E2E2E2E228E2E2E2E2E2E2E2E2E2E2E2E2E2E2E2E2E2E2E2F5F5F5F5E2E2E2E2E2E2E2E2E2E2E2E2E2E2E2E2E2E2E2E2E2E2E2E2E2E2E2E2E2E228E2E2E2E228E2E2E2E2E2BEE2E2E2E2E2E2E2E2E2E2E2BEE2F5E2BEF5EFBEE2F5E2BEE2E2E2E2E2E2E2E2E2BEE2E228E2E2E228E2E2E228E2E2E2E2
310
28E2E2E228E2DCDC28E2E2E2E2F5E2E2E2E2E2E2E2E2E2E2E2E2E2E2E2E2E2E2E2E2E2E2E2E2E2E2E2E2E2E2E2E2E2E2E2E2DCDC28E2E2E2E2E2E22828E2E2E2E2E22DE2E2E2E2E2E2E2E2E2E2E2E2E2E2E2F5F5F5F5E2E2E2E2E2E2E2E2E2E2E2E2E2E2E2E2E2E2E2E2E2E2E2E2E2E2E2E2E2E2E2E2E2E228E2E2E2E228E2
310
E2E2E2E2BEE2E2E2E2E2E2E2E2E2E2E2BEE2F5E2BEF5EFBEE2F5E2BEE2E2E2E2E2E2E2E2E2BEE2E228E2E2E228E2E2E228E2E2E2E228E2E2E228E2E2E228E2E2E2E2F5E2E2E2E2E2E2E2E2E2E2E2E2E2E2E2E2E2E2E2E2E2E2E2E2E2E2E2E2E2E2E2E2E2E2E2E2E2E228E2E2E2E2E2E22828E2E2E2E2E22DE2E2E2E2E2E2E2
310
E2E2E2E2F5F5F5F5E2E2E2E2E2E2E2E2E2E2E2E2E2E2E2E2E2E2E2E2E2E2E2E2E2E2E2E2E2E2E2E2E2E2E2E2E2E228E2E2E2E228E2E2E2E2E2BEE2E2E2E2E2E2E2E2E2E2E2BEE2F5E2BEF5EFBEE2F5E2BEE2E2E2E2E2E2E2E2E2BEE2E228E2E2E228E2E2E228E2E2E2E228E2E2E228E2E2E228E2E2E2E2F5E2E2E2E2E2E2E2
310
E2E2E2E2E2E2E2E2E2E2E2E2E2E2E2E2E2E2E2E2E2E2E2E2E2E2E2E2E2E22828E2E2E2E2E2E22828C3C3C3C3C3C3C3C3C3C3C3C3E2E2282828282828282828282828282828282828282828282828282828282828282828282828282828282828282828282828282828E2E2E2E2E2BEE2E2E2E2E2E2E2E2E2E2E2BEE2F5E2BE
310
F5EFBEE2F5BEBEE2E2E2E2E2E2E2E2E2BEE2E228E2E2E228E2E2E228E2E2E22828E2E2E228E2E2E228E2E2E2E2F5E2E2E2E2E2E2E2E2E2E2E2E2E2E2E2E2E2E2E2E2E2E2E2E2E2E2E2E2E2E2E2E2E2E2E2E2E228282828282828282828C3E2E2E2E22DE2E2E2E2E2C3F5F528E2E2E2E2E2E228E2E2E2E2E2E2E2E2E2E2E2E2
310
E2E2E2E2E2E2E2E2E2E2E2E2E2E2E2E2E2E2E2E2E2E2E2E2E228E2E2E2E2E2E2E2E2E2E2BEE2E2E2E2E2E2E2E2E2E2E2BEBEF5E2BEF5EFBEE2F5E2BEE2E2E2E2E2E2E2E2E2BEE2E228E2E2E228E2E2E22828282828282828282828282828282828282828282828282828282828282828282828282828282828282828282828
310
2828282828282828282828282828282828282828C3C3C3C3C3C3C3C3C3C32828282828282828282828E2E2E2E2E2E2E2E2E2E2E2E2E2E2E2E2E2E2E2E2E2E2E2E2E2E2E2E2E2E2E2E2E2E2E2E2E228E2E2E2E2E2E2E2E2E2E2BEE2E2E2E2E2E2E2E2E2E2E2BEE2F5E2BEF5EFBEE2F5E2BEE2E2E2E2E2E2E2E2E2BEE2E228E2
310
E2E228E2E2E2E2E2E2E2E2E2E2E2E2E2E2E2E2E2E2E2E2E2F5E2E2E2E2E2E2E2E2E2E2E2E2E2E2E2E2E2E2E2E2E2E2E2E2E2E2E2E2E2E2E2E2E2E2E2E2E22828E2E2E2F5F5E2E22828E2E2E2E228E2E2E2E2E228E2E228E2E2E2E2E2E228E2E2E2E2E2E2E2E2E2E2E2E2E2E2E2E2E2E2E2E2E2E2E2E2E2E2E2E2E2E2E2E2E2
310
E2E2E2E228E2E2E2E2E2E2E2E2E2E2BEE2E2E2E2E2E2E2E2E2E2E2BEE2F5E2BEF5EFBEE2F5E2BEE2E2E2E2E2E2E2E2E2BEE2E228E2E2E228E2E2E2E2E2E2E2E2E2E2E2E2E2E2E2E2E2E2E2E2E2F5E2E2E2E2E2E2E2E2E2E2E2E2E2E2E2E2E2E2E2E2E2E2E2E2E2E2E2E2E2E2E2E2E2E2E2E2E2E228E2E2F52D2D2D2D28282D
310
2D2D2D282D2D2D2D2D282D2D282D282828282828E2E2E2E2E2E2E2E2E2E2E2E2E2E2E2E2E2E2E2E2E2E2E2E2E2E2E2E2E2E2E2E2E2E2E2E2E228E2E2E2E2E2E2E2E2E2E2BEE2E2E2E2E2E2E2E2E2E2E2BEE2F5E2BEF5EFBEE2F5E2BEE2E2E2E2E2E2E2E2E2BEE2E228E2E2E228E2E2E2E2E2E2E2E2E2E2E2E2E2E2E2E2E2E2
310
E2E2E2F5E2E2E2E2E2E2E2E2E2E2E2E2E2E2E2E2E2E2E2E2E2E2E2E2E2E2E2E2E2E2E2E2E2E2E2E2E2E2E2E2F5E2E2E2E2E22828E2E2E2E228E2E2E2E2E228E2E22828E2E2E2E2E228E2E2E2E2E2E2E2E2E2E2E2E2E2E2E2E2E2E2E2E2E2E2E2E2E2E2E2E2E2E2E2E2E2E2E2E2E228E2E2E2E2E2E2E2E2E2E2BEE2E2E2E2E2
310
E2E2E2E2E2E2BEE2F5E2BEF5EFBEE2F5E2BEE2E2E2E2E2E2E2E2E2BEE2E228E2E2E228E2E2E2E2E2E2E2E2E2E2E2E2E2E2E2E2E2E2E2E2E2F5E2E2E2E2E2E2E2E2E2E2E2E2E2E2E2E2E2E2E2E2E2E2E2E2E2E2E2E2E2E2E2E2E2E2E2E2E2E2F5F5E2E2E2E2E2E22828E2E2E2E228E2E2E2E2E228E2E22828E2E2E2E2E228E2
310
E2E2E2E2E2E2E2E2E2E2E2E2E2E2E2E2E2E2E2E2E2E2E2E2E2E2E2E2E2E2E2E2E2E2E2E228E2E2E2E2E2E2E2E2E2E2BEE2E2E2E2E2E2E2E2E2E2E2BEE2F5E2BEF5EFBEE2F5E2BEE2E2E2E2E2E2E2E2E2BEE2E228E2E2E228282828282828282828282828282828282828282828282828282828282828282828282828282828
310
282828282828282828282828282828282828282828E2E2E2E2E2E2E2E22828E2E2E2E228E2E2E2E2E228E2E228E228E2E2DCDC28E2E2E2E2E2E2E2E2E2E2E2E2E2E2E2E2E2E2E2E2E2E2E2E2E2E2E2E2E2E2E2E2E2E2E2E2E228E2E2E2E2E2E2E2E2E2E2BEE2E2E2E2E2E2E2E2E2E2E2BEE2F5E2BEF5EFBEE2F5E2BEE2E2E2
310
E2E2E2E2E2E2BEE2E228E2E2E228E2E2E2E2E2E2E2E2E2E2E2E2E2E2E2E2E2E2E2E2E2F5E2E2E2E2E2E2E2E2E2E2E2E2E2E2E2E2E2E2E2E2E2E2E2E2E2E2E2E2E2E2E2F5F5F5F5E2E228E2E2E2E2E2E2E2E22828E2E2E2E228E2E2E2E2E228E2E228E228E2E2E2E228E2E2E2E2E2E2E2E2E2E2E2E2E2E2E2E2E2E2E2E2E2E2
310
E2E2E2E2E2E2E2E2E2E2E2E2E2E2E228E2E2E2E2E2E2E2E2E2E2BEE2E2E2E2E2E2E2E2E2E2E2BEE2F5E2BEF5EFBEE2F5E2BEE2E2E2E2E2E2E2E2E2BEE2E228E2E2E228E2E2E2E2E2E2E2E2E2E2E2E2E2E2E2E2E2E2E2E2E2F5E2E2E2E2E2E2E2E2E2E2E2E2E2E2E2E2E2E2E2E2E2E2E2E2E2E2E2F5F5F5F5E2E2E2E2E2E228
310
E2E2E2E22828282828282828282828E2E2E2E2E228E2E228E2282828282828282828282828282828282828282828282828E2E2E2E2E2E2E2E2E2E2E2E2E2E2E2E2E2E2E228E2E2E2E2E2E2E2E2E2E2BEE2E2E2E2E2E2E2E2E2E2E2BEE2F5E2BEF5EFBEE2F5BEBEE2E2E2E2E2E2E2E2E2BEE2E228E2E2DC28E2E2E2E2E2E2E2
310
E2E2E2E2E2E2E2E2E2E2E2E2E2E2F5E2E2E2E2E2E2E2E2E2E2E2E2E2E2E2E2E2E2E2E2E2E2E2F5F5F5F5E2E2E2E2E2E2E2E2E2E228E2E2E2E2E2DCE2E2E228E2DCDCDCE2E2E2E2E2E228E2E228E2E2E2DCDCDCDCDCDCDCDCDCDCDCDCDCDCDCDCDCE2DCDCDCE2E2E2E2E2E2E2E2E2E2E2E2E2E2E2E2E2E2E2E228E2E2E2E2E2
310
E2E2E2E2E2BEE2E2E2E2E2E2E2E2E2E2E2BEBEF5E2BEF5EFBEE2F5BEBEE2E2E2E2E2E2E2E2E2BEE2E228E2DCDC28E2E2E2E2E2E2E2E2E2E2E2E2E2E2E2E2E2E2E2E2E2F5E2E2E2E2E2E2E2E2E2E2E2E2E2E2E2E2E2E2E2F5F5F5F5E2E2E2E2E2E2E2E2E2E2E2E2E2E228E2E2E2E2DCDCE2E2E228E2DCDCDCE2E2E2E2E2E228
310
E2E228E2E2E2DCDCDCDCDCDCDCDCDCDCDCDCDCDCDCDCDCE2DCDCDCE2E2E2E2E2E2E2E2E2E2E2E2E2E2E2E2E2E2E2E228E2E2E2E2E2E2E2E2E2E2BEE2E2E2E2E2E2E2E2E2E2E2BEBEF5E2BEF5EFBEE2F5E2BEE2E2E2E2E2E2E2E2E2BEE2E228E2DCDC28E2E2E2E2E2E2E2E2E2E2E2E2E2E2E2E2E2E2E2E2E2F5E2E2E2E2E2E2
310
E2E2E2E2E2E2E2E2F5F5F5F5F5E2E2E2E2E2E2E2E2E2E2E2E2E2E2E2E2E2E228E2E2E2E2E2E2E2E2E228E2E2E2E2E2E2E2E2E2E228E2E228E2E2E2DCE2DCDCE2E2E2E2E2DCE2E2DCE2E2DCE2E2DCE2DCE2E2E2E2E2E2E2E2E2E2E2E2E2E2E2E2E2E2E2E228E2E2E2E2E2E2E2E2E2E2BEE2E2E2E2E2E2E2E2E2E2E2BEE2F5E2
310
BEF5EFBEE2F5E2BEE2E2E2E2E2E2E2E2E2BEE2E228E2E2E228E2E2E2E2E2E2E2E2E2E2E2E2E2E2E2E2E2E2E2E2E2F5E2E2E2E2E2E2E2E2E2E2F5F5F5F5E2E2E2E2E2E2E2E2E2E2E2E2E2E2E2E2E2E2E2E2E2E2E228E2E2E2E2E2E2E2E2E2282828282828282828282828E2E228282828282828282828282828282828282828
310
282828282828282828282828282828282828282828282828282828E2E2E2E2E2E2E2E2E2E2BEE2E2E2E2E2E2E2E2E2E2E2BEE2F5E2BEF5EFBEE2F5E2BEE2E2E2E2E2E2E2E2E2BEE2E228E2E2E228E2E2E2E2E2E2E2E2E2E2E2E2E2E2E2E2E2E2E2E2E2F5E2E2E2E2E2E2F5F5F5F5E2E2E2E2E2E2E2E2E2E2E2E2E2E2E2E2E2
310
E2E2E2E2E2E2E2E2E2E228E2E2E2E2E2E2E2E2E228E2E2E2E2DCDCE2E2E2E228E2E22828E2E2E2E2E2E2E2E2E2E2E2E2E2E2E2E2E2E2E2DCDCDCE2E2E2E2E2E2E2E2E2E2E2E2E2E2E2E2E2E2E2E22828E2E2E2E2E2E2E2E2E2E2BEE2E2E2E2E2E2E2E2E2E2E2BEE2F5E2BEF5EFBEE2F5E2BEE2E2E2E2E2E2E2E2E2BEE2E228
310
E2E2E228E2E2E2E2E2E2E2E2E2E2E2E2E2E2E2E2E2E2E2E2E2F5E2E2F5F5F5F5E2E2E2E2E2E2E2E2E2E2E2E2E2E2E2E2E2E2E2E2E2E2E2E2E2E2E2E2E2E2E228E2E2E2E2E2E2E2E2E2E2E2E2E2E2DCDCE2E2E2E2E2E2E2E2E2E2E2E2E2E2E2E2E2E2E2E2E2E2E2E2E2E2E2E2DCDCDCE2E2E2E2E2E2E2E2E2E2E2E2E2E2E2E2
310
E2E2E2E2E2E2E2E2E2E2E2E2E2E2E2E2BEE2E2E2E2E2E2E2E2E2E2E2BEE2F5E2BEF5EFBEE2F5E2BEE2E2E2E2E2E2E2E2E2BEE228282828282828282828282828282828282828282828282828282828F5F5E2E2E2E2E2E2E2E2E2E2E2E2E2E2E2E2E2E2E2E2E2E2E2E2E2E2E2E2E2E2E2E2E2E2E228E2E2E2E2E2E2E2E2E2E2
310
E2E2E2E2E2E2E2E2E2E2E2E2E2E2E2E2E2E2E2E2E2E2E2E2E2E2E2E2E2E2E2E2E2E2E2E2E2E2E2E2E2E2E2E2E2E2E2E2E2E2E2E2E2E2E2E2E2E2E2E2E2E2E2E2E2E2E2E2E2BEE2E2E2E2E2E2E2E2E2E2E2BEE2F5E2BEF5EFBEE2F5E2BEE2E2E2E2E2E2E2E2E2BEE2E2E2E2E2E2E2E2E2E2E2E2E2E2E2E2E2E2E2E2E2E2E2E2
310
E2E2E2E228E2E2E2E2E2E2E2E2E2E2E2E2E2E2E2E2E2E2E2E2E2E2E2E2E2E2E2E2E2E2E2E2E2E2E2E2E228E2E2E2E2E2E2E2E2E2E2E2E2E2E2E2E2E2E2E2E2E2E2E2E2E2E2E2E2E2E2E2E2E2E2E2E2E2E2E2E2E2E2E2E2E2E2E2E2E2E2E2E2E2E2E2E2E2E2E2E2E2E2E2E2E2E2E2E2E2E2E2E2E2E2E2E2E2E2E2BEE2E2E2E2
310
E2E2E2E2E2E2E2BEE2F5E2BEF5EFBEE2F5E2BEE2E2E2E2E2E2E2E2E2BEE2E2E2E2E2E2E2E2E2E2E2E2E2E2E2E2E2E2E2E2E2E2E2E2E2E2E2E228E2E2E2E2E2E2E2E2E2E2E2E2E2E2E2E2E2E2E2E2E2E2E2E2E2E2E2E2E2E2E2E2E2E2E2E2E228E2E2E2E2E2E2E2E2E2E2E2E2E2E2E2E2E2E2E2E2E2E2E2E2E2E2E2E2E2E2E2
310
E2E2E2E2E2E2E2E2E2E2E2E2E2E2E2E2E2E2E2E2E2E2E2E2E2E2E2E2E2E2E2E2E2E2E2E2E2E2E2E2E2E2E2E2E2E2E2E2BEE2E2E2E2E2E2E2E2E2E2E2BEE2F5E2BEF5EFBEE2F5E2BEE2E2E2E2E2E2E2E2E2BEE2E2E2E2E2E2E2E2E2E2E2E2E2E2E2E2E2E2E2E2E2E2E2E2E2E2E2E228E2E2E2E2E2E2E2E2E2E2E2E2E2E2E2E2
310
E2E2E2E2E2E2E2E2E2E2E2E2E2E2E2E2E2E2E2E2E228E2E2E2E2E2E2E2E2E2E2E2E2E2E2E2E2E2E2E2E2E2E2E2E2E2E2E2E2E2E2E2E2E2E2E2E2E2E2E2E2E2E2E2E2E2E2E2E2E2E2E2E2E2E2E2E2E2E2E2E2E2E2E2E2E2E2E2E2E2E2E2E2E2E2E2E2E2E2E2BEE2E2E2E2E2E2E2E2E2E2E2BEE2F5E2BEF5EFBEE2F5BEBEE2E2
310
E2E2E2E2E2E2E2BEE2E2E2E2E2E2E2E2E2E2E2E2E2E2E2E2E2E2E2E2E2E2E2E2E2E2E2E228E2E2E2E2E2E2E2E2E2E2E2E2E2E2E2E2E2E2E2E2E2E2E2E2E2E2E2E2E2E2E2E2E2E2E2E2E228E2E2E2E2E2E2E2E2E2E2E2E2E2E2E2E2E2E2E2E2E2E2E2E2E2E2E2E2E2E2E2E2E2E2E2E2E2E2E2E2E2E2E2E2E2E2E2E2E2E2E2E2
310
E2E2E2E2E2E2E2E2E2E2E2E2E2E2E2E2E2E2E2E2E2E2E2E2E2E2E2BEE2E2E2E2E2E2E2E2E2E2E2BEBEF5E2BEF5EFBEE2F5E2BEE2E2E2E2E2E2E2E2E2BEE2E2E2E2E2E2E2E2E2E2E2E2E2E2E2E2E2E2E2E2E2E2E2E2E2E2E2E22828282828282828282828282828282828282828282828282828282828282828282828282828
310
28E2E2E2E2E2E2E2E2E2E2E2E2E2E2E2E2E2E2E2E2E2E2E2E2E2E2E2E2E2E2E2E2E2E2E2E2E2E2E2E2E2E2E2E2E2E2E2E2E2E2E2E2E2E2E2E2E2E2E2E2E2E2E2E2E2E2E2E2E2E2E2E2E2E2E2E2E2E2E2BEE2E2E2E2E2E2E2E2E2E2E2BEE2F5E2BEF5EFBEE2F5E2BEE2E2E2E2E2E2E2E2E2BEE2E2E2E2E2E2E2E2E2E2E2E2E2
310
E2E2E2E2E2E2E2E2E2E2E2E2E2E2E228E2E2E2E2E2E2E2E2E2E2E2E2E2E2E2E2E2DCDCDCE2E2E2E2E2E2E2E2E2E2E2E2E2E2E2E2E228E2E2E2E2E2E2E2E2E2E2E2E2E2E2E2E2E2E2E2E2E2E2E2E2E2E2E2E2E2E2E2E2E2E2E2E2E2E2E2E2E2E2E2E2E2E2E2E2E2E2E2E2E2E2E2E2E2E2E2E2E2E2E2E2E2E2E2E2E2E2E2E2E2
310
E2E2E2E2E2E2BEE2E2E2E2E2E2E2E2E2E2E2BEE2F5E2BEF5EFBEE2F5E2BEE2E2E2E2E2E2E2E2E2BEE2E2E2E2E2E2E2E2E2E2E2E2E2E2E2E2E2E2E2E2E2E2E2E2E2E2E2E2E2E2E2E2E2E2E2E2E2E2E2E2E2E2E2E2E2E2DCDCDCE2E2E2E2E2E2E2E2E2E2E2E2E2E2E2E2E2E2E2E2E2E2E2E2E2E2E2E2E2E2E2E2E2E2E2E2E2E2
310
E2E2E2E2E2E2E2E2E2E2E2E2E2E2E2E2E2E2E2E2E2E2E2E2E2E2E2E2E2E2E2E2E2E2E2E2E2E2E2E2E2E2E2E2E2E2E2E2E2E2E2E2E2E2E2E2E2E2E2BEE2E2E2E2E2E2E2E2E2E2E2BEE2F5E2BEF5EFBEE2F5E2BEE2E2E2E2E2E2E2E2E2BEE2E2E2E2E2E2E2E2E2E2E2E2E2E2E2E2E2E2E2E2E2E2E2E2E2E2E2E2E2E2E2E2E2E2
310
E2E2E2E2E2E2E2E2E2E2E2E2E2E2E2E2E2E2E2E2E2E2E2E2E2E2E2E2E2E2E2E2E2E2E2E2E2E2E2E2E2E2E2E2E2E2E2E2E2E2E2E2E2E2E2E2E2E2E2E2E2E2E2E2E2E2E2E2E2E2E2E2E2E2E2E2E2E2E2E2E2E2E2E2E2E2E2E2E2E2E2E2E2E2E2E2E2E2E2E2E2E2E2E2E2E2E2E2E2E2E2E2BEE2E2E2E2E2E2E2E2E2E2E2BEE2F5
310
E2BEF5EFBEE2F5E2BEE2E2E2E2E2E2E2E2E2BEE2E2E2E2E2E2E2E2E2E2E2E2E2E2E2E2E2E2E2E2E2E2E2E2E2E2E2E2E2E2E2E2E2E2E2E2E2E2E2E2E2E2E2E2E2E2E2E2E2E2E2E2E2E2E2E2E2E2E2E2E2E2E2E2E2E2E2E2E2E2E2E2E2E2E2E2E2E2E2E2E2E2E2E2E2E2E2E2E2E2E2E2E2E2E2E2E2E2E2E2E2E2E2E2E2E2E2E2
310
E2E2E2E2E2E2E2E2E2E2E2E2E2E2E2E2E2E2E2E2E2E2E2E2E2E2E2E2E2E2E2E2E2E2E2E2E2E2BEE2E2E2E2E2E2E2E2E2E2E2BEE2F5E2BEF5EFBEE2F5E2BEE2E2E2E2E2E2E2E2E2BEE2E2E2E2E2E2E2E2E2E2E2E2E2E2E2E2E2E2E2E2E2E2E2E2E2E2E2E2E2E2E2E2E2E2E2E2E2E2E2E2E2E2E2E2E2E2E2E2E2E2E2E2E2E2E2
310
E2E2E2E2E2E2E2E2E2E2E2E2E2E2E2E2E2E2E2E2E2E2E2E2E2E2E2E2E2E2E2E2E2E2E2E2E2E2E2E2E2E2E2E2E2E2E2E2E2E2E2E2E2E2E2E2E2E2E2E2E2E2E2E2E2E2E2E2E2E2E2E2E2E2E2E2E2E2E2E2E2E2E2E2E2E2E2E2E2E2E2BEE2E2E2E2E2E2E2E2E2E2E2BEE2F5E2BEF5EFBEE2F5E2BEE2E2E2E2E2E2E2E2E2BEE2E2
310
E2E2E2E2E2E2E2E2E2E2E2E2E2E2E2E2E2E2E2E2E2E2E2E2E2E2E2E2E2E2E2E2E2E2E2E2E2E2E2E2E2E2E2E2E2E2E2E2E2E2E2E2E2E2E2E2E2E2E2E2E2E2E2E2E2E2E2E2E2E2E2E2E2E2E2E2E2E2E2E2E2E2E2E2E2E2E2E2E2E2E2E2E2E2E2E2E2E2E2E2E2E2E2E2E2E2E2E2E2E2E2E2E2E2E2E2E2E2E2E2E2E2E2E2E2E2E2
310
E2E2E2E2E2E2E2E2E2E2E2E2E2E2E2E2E2BEE2E2E2E2E2E2E2E2E2E2E2BEE2F5E2BEF5EFBEE2F5E2BEE2E2E2E2E2E2E2E2E2BEE2E2E2E2E2E2E2E2E2E2E2E2E2E2E2E2E2E2E2E2E2E2E2E2E2E2E2E2E2E2E2E2E2E2E2E2E2E2E2E2E2E2E2E2E2E2E2E2E2E2E2E2E2E2E2E2E2E2E2E2E2E2E2E2E2E2E2E2E2E2E2E2E2E2E2E2
310
E2E2E2E2E2E2E2E2E2E2E2E2E2E2E2E2E2E2E2E2E2E2E2E2E2E2E2E2E2E2E2E2E2E2E2E2E2E2E2E2E2E2E2E2E2E2E2E2E2E2E2E2E2E2E2E2E2E2E2E2E2E2E2E2E2E2E2E2E2E2BEE2E2E2E2E2E2E2E2E2E2E2BEE2F5E2BEF5EFBEE2F5BEBEE2E2E2E2E2E2E2E2E2BEE2E2E2E2E2E2E2E2E2E2E2E2E2E2E2E2E2E2E2E2E2E2E2
310
E2E2E2E2E2E2E2E2E2E2E2E2E2E2E2E2E2E2E2E2E2E2E2E2E2E2E2E2E2E2E2E2E2E2E2E2E2E2E2E2E2E2E2E2E2E2E2E2E2E2E2E2E2E2E2E2E2E2E2E2E2E2E2E2E2E2E2E2E2E2E2E2E2E2E2E2E2E2E2E2E2E2E2E2E2E2E2E2E2E2E2E2E2E2E2E2E2E2E2E2E2E2E2E2E2E2E2E2E2E2E2E2E2E2E2E2E2E2E2E2E2E2E2BEE2E2E2
310
E2E2E2E2E2E2E2E2BEBEF5E2BEF5EFBEE2F5BEBEE2E2E2E2E2E2E2E2E2BEE2E2E2E2E2E2E2E2E2E2E2E2E2E2E2E2E2E2E2E2E2E2E2E2E2E2E2E2E2E2E2E2E2E2E2E2E2E2E2E2E2E2E2E2E2E2E2E2E2E2E2E2E2E2E2E2E2E2E2E2E2E2E2E2E2E2E2E2E2E2E2E2E2E2E2E2E2E2E2E2E2E2E2E2E2E2E2E2E2E2E2E2E2E2E2E2E2
310
E2E2E2E2E2E2E2E2E2E2E2E2E2E2E2E2E2E2E2E2E2E2E2E2E2E2E2E2E2E2E2E2E2E2E2E2E2E2E2E2E2E2E2E2E2E2E2E2E2BEE2E2E2E2E2E2E2E2E2E2E2BEBEF5E2BEF5EFBEE2F5BEBEE2E2E2E2E2E2E2E2E2BEE2E2E2E2E2E2E2E2E2E2E2E2E2E2E2E2E2E2E2E2E2E2E2E2E2E2E2E2E2E2E2E2E2E2E2E2E2E2E2E2E2E2E2E2
310
E2E2E2E2E2E2E2E2E2E2E2E2E2E2E2E2E2E2E2E2E2E2E2E2E2E2E2E2E2E2E2E2E2E2E2E2E2E2E2E2E2E2E2E2E2E2E2E2E2E2E2E2E2E2E2E2E2E2E2E2E2E2E2E2E2E2E2E2E2E2E2E2E2E2E2E2E2E2E2E2E2E2E2E2E2E2E2E2E2E2E2E2E2E2E2E2E2E2E2E2E2E2BEE2E2E2E2E2E2E2E2E2E2E2BEBEF5E2BEF5EFBEE2F5E2BEE2
310
E2E2E2E2E2E2E2E2BEE2E2E2E2E2E2E2E2E2E2E2E2E2E2E2E2E2E2E2E2E2E2E2E2E2E2E2E2E2E2E2E2E2E2E2E2E2E2E2E2E2E2E2E2E2E2E2E2E2E2E2E2E2E2E2E2E2E2E2E2E2E2E2E2E2E2E2E2E2E2E2E2E2E2E2E2E2E2E2E2E2E2E2E2E2E2E2E2E2E2E2E2E2E2E2E2E2E2E2E2E2E2E2E2E2E2E2E2E2E2E2E2E2E2E2E2E2E2
310
E2E2E2E2E2E2E2E2E2E2E2E2E2E2E2E2E2E2E2E2E2E2E2E2E2E2E2E2BEE2E2E2E2E2E2E2E2E2E2E2BEE2F5E2BEF5EFBEE2F5E2BEE2E2E2E2E2E2E2E2E2BEBEBEBEBEBEBEBEBEBEBEBEBEBEBEBEBEBEBEBEBEBEBEBEBEBEBEBEBEBEBEBEBEBEBEBEBEBEBEBEBEBEBEBEBEBEBEBEBEBEBEBEBEBEBEBEBEBEBEBEBEBEBEBEBEBE
310
BEBEBEBEBEBEBEBEBEBEBEBEBEBEBEBEBEBEBEBEBEBEBEBEBEBEBEBEBEBEBEBEBEBEBEBEBEBEBEBEBEBEBEBEBEBEBEBEBEBEBEBEBEBEBEBEBEBEBEBEBEBEBEBEBEBEBEBEBEBEBEBEBEBEBEBEBEBEBEBEBEBEE2E2E2E2E2E2E2E2E2E2E2BEE2F5E2BEF5EFBEE2F5E2BEE2E2E2E2E2E2E2E2E2E2E2E2E2E2E2E2E2E2E2E2E2E2
310
E2E2E2E2E2E2E2E2E2E2E2E2E2E2E2E2E2E2E2E2E2E2E2E2E2E2E2E2E2E2E2E2E2E2E2E2E2E2E2E2E2E2E2E2E2E2E2E2E2E2E2E2E2E2E2E2E2E2E2E2E2E2E2E2E2E2E2E2E2E2E2E2E2E2E2E2E2E2E2E2E2E2E2E2E2E2E2E2E2E2E2E2E2E2E2E2E2E2E2E2E2E2E2E2E2E2E2E2E2E2E2E2E2E2E2E2E2E2E2E2E2E2E2E2E2E2E2
310
E2E2E2E2E2E2E2E2E2E2E2E2E2E2E2E2E2E2E2BEE2F5E2BEF5EFBEE2F5E2BEE2E2E2E2E2E2E2E2E2E2E2E2E2E2E2E2E2E2E2E2E2E2E2E2E2E2E2E2E2E2E2E2E2E2E2E2E2E2E2E2E2E2E2E2E2E2E2E2E2E2E2E2E2E2E2E2E2E2E2E2E2E2E2E2E2E2E2E2E2E2E2E2E2E2E2E2E2E2E2E2E2E2E2E2E2E2E2E2E2E2E2E2E2E2E2E2
310
E2E2E2E2E2E2E2E2E2E2E2E2E2E2E2E2E2E2E2E2E2E2E2E2E2E2E2E2E2E2E2E2E2E2E2E2E2E2E2E2E2E2E2E2E2E2E2E2E2E2E2E2E2E2E2E2E2E2E2E2E2E2E2E2E2E2E2E2E2E2E2E2BEE2F5E2BEF5EFBEE2F5E2BEE2E2E2E2E2E2E2E2E2E2E2E2E2E2E2E2E2E2E2E2E2E2E2E2E2E2E2E2E2E2E2E2E2E2E2E2E2E2E2E2E2E2E2
310
E2E2E2E2E2E2E2E2E2E2E2E2E2E2E2E2E2E2E2E2E2E2E2E2E2E2E2E2E2E2E2E2E2E2E2E2E2E2E2E2E2E2E2E2E2E2E2E2E2E2E2E2E2E2E2E2E2E2E2E2E2E2E2E2E2E2E2E2E2E2E2E2E2E2E2E2E2E2E2E2E2E2E2E2E2E2E2E2E2E2E2E2E2E2E2E2E2E2E2E2E2E2E2E2E2E2E2E2E2E2E2E2E2E2E2E2E2E2E2E2E2E2E2E2E2BEE2
310
F5E2BEF5EFBEE2F5E2BEE2E2E2E2E2E2E2E2E2E2E2E2E2E2E2E2E2E2E2E2E2E2E2E2E2E2E2E2E2E2E2E2E2E2E2E2E2E2E2E2E2E2E2E2E2E2E2E2E2E2E2E2E2E2E2E2E2E2E2E2E2E2E2E2E2E2E2E2E2E2E2E2E2E2E2E2E2E2E2E2E2E2E2E2E2E2E2E2E2E2E2E2E2E2E2E2E2E2E2E2E2E2E2E2E2E2E2E2E2E2E2E2E2E2E2E2E2
310
E2E2E2E2E2E2E2E2E2E2E2E2E2E2E2E2E2E2E2E2E2E2E2E2E2E2E2E2E2E2E2E2E2E2E2E2E2E2E2E2E2E2E2E2E2E2E2E2E2E2E2BEE2F5E2BEF5EFBEE2F5E2BEE2E2E2E2E2E2E2E2E2E2E2E2E2E2E2E2E2E2E2E2E2E2E2E2E2E2E2E2E2E2E2E2E2E2E2E2E2E2E2E2E2E2E2E2E2E2E2E2E2E2E2E2E2E2E2E2E2E2E2E2E2E2E2E2
310
E2E2E2E2E2E2E2E2E2E2E2E2E2E2E2E2E2E2E2E2E2E2E2E2E2E2E2E2E2E2E2E2E2E2E2E2E2E2E2E2E2E2E2E2E2E2E2E2E2E2E2E2E2E2E2E2E2E2E2E2E2E2E2E2E2E2E2E2E2E2E2E2E2E2E2E2E2E2E2E2E2E2E2E2E2E2E2E2E2E2E2E2E2E2E2E2E2E2E2E2E2E2E2E2BEE2F5E2BEF5EFBEE2F5E2BEE2E2E2E2E2E2E2E2E2E2E2
310
E2E2E2E2E2E2E2E2E2E2E2E2E2E2E2E2E2E2E2E2E2E2E2E2E2E2E2E2E2E2E2E2E2E2E2E2E2E2E2E2E2E2E2E2E2E2E2E2E2E2E2E2E2E2E2E2E2E2E2E2E2E2E2E2E2E2E2E2E2E2E2E2E2E2E2E2E2E2E2E2E2E2E2E2E2E2E2E2E2E2E2E2E2E2E2E2E2E2E2E2E2E2E2E2E2E2E2E2E2E2E2E2E2E2E2E2E2E2E2E2E2E2E2E2E2E2E2
310
E2E2E2E2E2E2E2E2E2E2E2E2E2E2E2E2E2E2E2E2E2E2E2E2E2E2E2E2E2E2BEE2F5E2BEF5EFBEE2F5E2BEBEBEBEBEBEBEBEBEBEBEBEBEBEBEBEBEBEBEBEBEBEBEBEBEBEBEBEBEBEBEBEBEBEBEBEBEBEBEBEBEBEBEBEBEBEBEBEBEBEBEBEBEBEBEBEBEBEBEBEBEBEBEBEBEBEBEBEBEBEBEBEBEBEBEBEBEBEBEBEBEBEBEBEDCBE
310
BEBEBEBEBEBEBEBEBEBEBEBEBEBEBEBEBEBEBEBEBEBEBEBEBEBEBEBEBEBEBEBEBEBEBEBEBEBEBEBEBEBEBEBEBEBEBEBEBEBEBEBEBEBEBEBEBEBEBEBEBEBEBEBEBEBEBEBEBEBEBEBEBEBEBEBEBEBEBEBEBEBEBEBEE2F5E2BEF5EFBEE2F5E2E2E2E2E2E2E2E2E2E2E2BEE2E2E2E2E2E2E2E2E2E2BEE2E2E2E2E2E2E2E2E2BEBE
310
E2E2E2E2E2E2E2E2E2BEE2E2E2E2E2E2E2E2E2BEBEE2E2E2E2E2E2E2E2E2BEE2E2E2E2E2E2E2E2E2E2BEE2E2E2E2E2E2E2E2E2DCE2E2E2E2E2E2E2E2E2E2BEE2E2E2E2E2E2E2E2E2E2BEE2E2E2E2E2E2E2E2E2BEBEE2E2E2E2E2E2E2E2E2BEE2E2E2E2E2E2E2E2E2BEBEE2E2E2E2E2E2E2E2E2BEE2E2E2E2E2E2E2E2E2BEBE
310
E2E2E2E2E2E2E2E2E2E2E2F5E2BEF5EFBEE2F5F5F5F5F5F5F5F5F5F5F5F5F5F5F5F5F5F5F5F5F5F5F5F5F5F5F5F5F5F5F5F5F5F5F5F5F5F5F5F5F5F5F5F5F5F5F5F5F5F5F5F5F5F5F5F5F5F5F5F5F5F5F5F5F5F5F5F5F5F5F5F5F5F5F5F5F5F5F5F5F5F5F5F5F5F5DCF5F5F5F5F5F5F5F5F5F5F5F5F5F5F5F5F5F5F5F5F5F5
310
F5F5F5F5F5F5F5F5F5F5F5F5F5F5F5F5F5F5F5F5F5F5F5F5F5F5F5F5F5F5F5F5F5F5F5F5F5F5F5F5F5F5F5F5F5F5F5F5F5F5F5F5F5F5F5F5F5F5F5F5F5F5F5F5F5E2BEF5EFBEE2E2E2E2E2E2E2E2E2E2E2E2E2E2E2E2E2E2E2E2E2E2E2E2E2E2E2E2E2E2E2E2E2E2E2E2E2E2E2E2E2E2E2E2E2E2E2E2E2E2E2E2E2E2E2E2E2
310
E2E2E2E2E2E2E2E2E2E2E2E2E2E2E2E2E2E2E2E2E2E2E2E2E2E2E2E2E2E2E2E2E2E2E2E2E2E2E2E2E2E2E2E2E2E2E2E2E2E2E2E2E2E2E2E2E2E2E2E2E2E2E2E2E2E2E2E2E2E2E2E2E2E2E2E2E2E2E2E2E2E2E2E2E2E2E2E2E2E2E2E2E2E2E2E2E2E2E2E2E2E2E2E2E2E2E2E2E2E2E2E2E2E2E2E2E2E2E2BEEFEFBEBEBEBEBE
310
BEBEBEBEBEBEBEBEBEBEBEBEBEBEBEBEBEBEBEBEBEBEBEBEBEBEBEBEBEBEBEBEBEBEBEBEBEBEBEBEBEBEBEBEBEBEBEBEBEBEBEBEBEBEBEBEBEBEBEBEBEBEBEBEBEBEBEBEBEBEBEBEBEBEBEBEBEBEBEBEBEBEBEBEBEBEBEBEBEBEBEBEBEBEBEBEBEBEBEBEBEBEBEBEBEBEBEBEBEBEBEBEBEBEBEBEBEBEBEBEBEBEBEBEBEBEBE
310
BEBEBEBEBEBEBEBEBEBEBEBEBEBEBEBEBEBEBEBEBEBEBEBEBEBEBEBEBEBEBEBEBEBEBEBEBEBEBEBEBEBEBEBEBEBEEFEF
  0
XRECORD
  5
723D
102
{ACAD_REACTORS
330
723C
102
}
330
723C
100
AcDbXrecord
280
     1
102
SHADEPLOT
 70
     1
102
SHADEPLOTRESLEVEL
 70
     2
102
SHADEPLOTCUSTOMDPI
 70
   300
  0
ENDSEC
  0
EOF
